Завантажити та скачати торренти українською


Американський психопат / American Psycho (2000) 720p Ukr/Eng | Sub Eng

Нові коментарі

Нова тема   Відповісти
Автор Повідомлення
Віктор 
Відео Гуртом - субтитрування
Відео Гуртом - субтитрування


З нами з: 09.01.10
Востаннє: 09.12.16
Повідомлень: 8664

2011-09-28 09:35  
Американський психопат / American Psycho (2000) 720p Ukr/Eng | Sub Eng



«No Introduction Necessary.»


Жанр: кримінальний, драма
Країна: США



Кіностудія / кінокомпанія: Am Psycho Productions, Edward R. Pressman Film, Lions Gate Films
Режисер: Мері Герон (Mary Harron)
Композитор: Джон Кел (John Cale)
Актори: Крістіан Бейл (Christian Bale), Джастін Теру (Justin Theroux), Джош Лукас (Josh Lucas), Біл Сейдж (Bill Sage), Різ Візерспун (Reese Witherspoon), Саманта Метіс (Samantha Mathis), Мет Рос (Matt Ross), Джаред Лето (Jared Leto), Віллем Дефо (Willem Dafoe) та інші.

Сюжет:
Удень він нічим не відрізняється від навколишніх і в натовпі ви не звертаєте уваги на нього. Але вночі цей вихований громадянин перетворюється на витонченого вбивцю, що тероризує місто.
Сучасний дикун, який зневажає закони людства, харчується лише спопеляючим полум’ям своєї ненависті, яке зростає з кожним новим злочином. Лавина жаху наближається до критичної межі. Невдовзі настане момент, коли її вже не можна буде зупинити.
Цікаві факти


• Коли роллю Бейтмана зацікавився Леонардо Ді Капріо, бюджет фільму стрімко виріс, а з проекту попросили піти не лише Крістіана Бейла, а й режисера Мері Герон. На щастя, Ді Капріо переконали не подавати цією роллю поганий приклад своїм численним шанувальникам, і Бейл з Герон повернулися в проект.
• До проекту також довгий час виявляв інтерес Олівер Стоун.
• Роль Бейтмена також пропонували Едварду Нортону.
• Девід Кроненберґ був не проти зняти фільм, якби головну роль зіграв Бред Піт, а сценарій написав би сам Елліс.
• Бейтмен згадує ім'я якогось Кліфа Гакстейбла. Це ім'я героя Білла Косбі в серіялі «Шоу Косбі».
• Бейтмен працює у вигаданій фірмі «Пірс і Пірс». У цій же фірмі працював Шермен Маккой з «Вогнища марнославства» (1990).
• По телевізору Бейтмена показують «Техаську різанину бензопилою» (1974) Тоуба Гупера.
• Бейтмен також дивиться порнофільм «Білий янгол» (1998).
• Бейтмен розповідає по телефону своєму юристу про події, які мали місце в романі Елліса, але не в самому фільмі.
• На всіх візитних картках у фільмах можна прочитати одну і ту ж посаду - віце-президент.
• Група канадських активістів у Торонто домагалася заборони фільму, оскільки трохи раніше тут відбувся процес над серійним убивцею Полом Бернардо, який заявив, що на вбивства його надихав роман Елліса.
• Головною претензією, яку висували до фільму шанувальники роману, було те, що Мері Герон змусила сумніватися глядачів у тому, що вбивства Бейтмена відбулися насправді, а не виявилися лише фантазіями його хворого розуму (в романі цього не було).
• Незважаючи на те, що дія картини розгортається у 1987 році, Рональд Рейґан виступає в кінці фільму по телевізору «Sony Trinitron» моделі кінця 90-х років.
• Бюджет - $8,000,000
MediaInfo

Код:

General
Unique ID                        : 240936529640847727226061147190928644297 (0xB542B00DF8FD21C9BCE93FAABFF898C9)
Complete name                    : D:\HURTOM\American Psycho (2000) [Ukr, Eng] 720p [Hurtom & HDCLUB].mkv
Format                           : Matroska
File size                        : 4.05 GiB
Duration                         : 1h 42mn
Overall bit rate                 : 5 685 Kbps
Movie name                       : American Psycho (2000) [Ukr, Eng] 720p [Hurtom & HDCLUB]
Encoded date                     : UTC 2011-09-28 07:22:51
Writing application              : mkvmerge v4.7.0 ('Just Like You Imagined') зібрано Apr 21 2011 01:13:14
Writing library                  : libebml v1.2.0 + libmatroska v1.1.0

Video
ID                               : 1
Format                           : AVC
Format/Info                      : Advanced Video Codec
Format profile                   : [email protected]
Format settings, CABAC           : Yes
Format settings, ReFrames        : 6 frames
Codec ID                         : V_MPEG4/ISO/AVC
Duration                         : 1h 42mn
Bit rate                         : 4 595 Kbps
Width                            : 1 280 pixels
Height                           : 544 pixels
Display aspect ratio             : 2.35:1
Frame rate                       : 23.976 fps
Color space                      : YUV
Chroma subsampling               : 4:2:0
Bit depth                        : 8 bits
Scan type                        : Progressive
Bits/(Pixel*Frame)               : 0.275
Stream size                      : 3.20 GiB (79%)
Title                            : American Psycho (2000) [Ukr, Eng] 720p [Hurtom & HDCLUB]
Writing library                  : core 65 r1057M 5f8a149
Encoding settings                : cabac=1 / ref=6 / deblock=1:-3:-3 / analyse=0x3:0x133 / me=umh / subme=9 / psy_rd=1.1:0.0 / mixed_ref=1 / me_range=32 / chroma_me=1 / trellis=0 / 8x8dct=1 / cqm=2 / deadzone=8,8 / chroma_qp_offset=-2 / threads=6 / nr=0 / decimate=1 / mbaff=0 / bframes=16 / b_pyramid=0 / b_adapt=1 / b_bias=0 / direct=1 / wpredb=1 / keyint=250 / keyint_min=25 / scenecut=40(pre) / rc=2pass / bitrate=4595 / ratetol=1.0 / qcomp=0.60 / qpmin=10 / qpmax=51 / qpstep=4 / cplxblur=20.0 / qblur=0.5 / ip_ratio=1.40 / pb_ratio=1.30 / aq=1:0.80
Language                         : English

Audio #1
ID                               : 2
Format                           : AC-3
Format/Info                      : Audio Coding 3
Mode extension                   : CM (complete main)
Codec ID                         : A_AC3
Duration                         : 1h 42mn
Bit rate mode                    : Constant
Bit rate                         : 448 Kbps
Channel(s)                       : 6 channels
Channel positions                : Front: L C R, Side: L R, LFE
Sampling rate                    : 48.0 KHz
Bit depth                        : 16 bits
Compression mode                 : Lossy
Stream size                      : 327 MiB (8%)
Title                            : 5.1 @ 448 kbps - багатоголосий закадровий
Language                         : Ukrainian

Audio #2
ID                               : 3
Format                           : AC-3
Format/Info                      : Audio Coding 3
Mode extension                   : CM (complete main)
Codec ID                         : A_AC3
Duration                         : 1h 42mn
Bit rate mode                    : Constant
Bit rate                         : 640 Kbps
Channel(s)                       : 6 channels
Channel positions                : Front: L C R, Side: L R, LFE
Sampling rate                    : 48.0 KHz
Bit depth                        : 16 bits
Compression mode                 : Lossy
Stream size                      : 467 MiB (11%)
Title                            : 5.1 @ 640 kbps
Language                         : English

Text
ID                               : 4
Format                           : UTF-8
Codec ID                         : S_TEXT/UTF8
Codec ID/Info                    : UTF-8 Plain Text
Language                         : English
Релізи та інформація про озвучення/дублювання

720p Ukr/Eng | Sub Eng (4.05 GB) - багатоголосий закадровий запис звуку з К1
Ukr/Eng | Sub Eng (1.78 GB) - багатоголосий закадровий запис звуку з К1

Ролі озвучили: Анатолій Пашнін, Володимир Терещук, Тетяна Зіновенко
Тривалість: 01:42:02
Якість: 720р
Відео:
кодек:
розмір кадру: 1280х544
бітрейт: 4595 кб/с

Аудіо # 1:
мова: українська
переклад: багатоголосий закадровий запис з К1
кодек: 5.1
бітрейт: 448 кб/с

Аудіо # 2:
мова: анґлійська
переклад: ориґінал
кодек: 5.1
бітрейт: 640 кб/с

Субтитри:
мова: анґлійська
тип: програмні (м'які)
формат: *.srt

Скріншоти:





За створення доріжки 5.1 подяка Romario_O,
за запис звуку з ТБ подяка МАКАРОННІК
окрема подяка yuraflash


Джерело:

Особиста оцінка: 7


Срібний реліз (на рейтинг впливає 50% завантаженого)
 Трекер:    Зареєстрований   

Завантажити / скачати фільм українською



відео для новачків



 Зареєстрований:   2011-09-28 09:35
 Розмір:   4.05 GB 
 Оцінка фільму:   9.2/10 (Голосів: 30)
   
Інші релізи
bilenkuyboy 
Відео Гуртом - дизайнер
Відео Гуртом - дизайнер


З нами з: 17.06.08
Востаннє: 09.12.16
Повідомлень: 1582

2011-09-28 11:59  
Український постер, ще давно робив))
Американський психопат / American Psycho (2000)

Віктор 
Відео Гуртом - субтитрування
Відео Гуртом - субтитрування


З нами з: 09.01.10
Востаннє: 09.12.16
Повідомлень: 8664

2011-09-28 12:08  
bilenkuyboy написано:
Український постер, ще давно робив))


Ніби я не бачив. В українській мові іде чергування голосних Віллем / Візерспун і так далі.

bilenkuyboy 
Відео Гуртом - дизайнер
Відео Гуртом - дизайнер


З нами з: 17.06.08
Востаннє: 09.12.16
Повідомлень: 1582

2011-09-28 22:27  
w2958l написано:
Ніби я не бачив. В українській мові іде чергування голосних Віллем / Візерспун і так далі.

Добре зміню, можна було просто написати, в мене всі псд файли збережені, тому мені це не важко!!

Віктор 
Відео Гуртом - субтитрування
Відео Гуртом - субтитрування


З нами з: 09.01.10
Востаннє: 09.12.16
Повідомлень: 8664

2011-09-28 22:42  
bilenkuyboy написано:
Добре зміню, можна було просто написати, в мене всі псд файли збережені, тому мені це не важко!!


Та все одно я його не поставлю, ти ж чудово знаєш що мені подобаються такі постери як в оформлені, тобто обкладинки від Blu Ray

А ще одне, слоган:
він власна смерть правильніше буде - він смерть власною персоною, чи якось так

thujone 
Новенький


З нами з: 26.01.12
Востаннє: 12.08.16
Повідомлень: 5

2012-08-17 10:10  
в Донецьку Космополiс показують укр мовою
Віктор 
Відео Гуртом - субтитрування
Відео Гуртом - субтитрування


З нами з: 09.01.10
Востаннє: 09.12.16
Повідомлень: 8664

2012-08-17 13:48  
thujone написано:
в Донецьку Космополiс показують укр мовою

полюбе, та ще й в Донецьку, навіть кінопрокатник, який дає в прокат фільм відповів що фільм в укр. прокаті російською мовою.

п.с. thujone, прохання не флудити.

Ваш часовий пояс: GMT + 2 Години

Нова тема   Відповісти