Завантажити та скачати торренти українською


Ігор Хома. Medicus - 5 CD, box set (2009) [FLAC] | Jazz

Нові коментарі

Нова тема   Відповісти
Автор Повідомлення
gosha.samovar 
VIP


З нами з: 08.09.10
Востаннє: 05.12.16
Повідомлень: 400

2011-09-24 21:30  
Ігор Хома. Medicus - 5 CD, box set (2009) [FLAC] | Jazz



Стиль: Jazz
Країна, місто: Україна, Львів
Видавець: "НАШ ФОРМАТ"
Виконавці: Ігор Хома, оркестр "Ритм", ансамбль "Медікус", Олег Дорош, інші виконавці
Ігор Хома. Оркестр "Ритм"




01. Take the "A" Train (Billy Straihorn)
02. Caravan (Duke Ellington)
03. Oh, Lady, be Good! (George Gershwin)
04. Tenderly (Walter Lloyd Gross – Jack Lawrence)
05. "C" Jam Blues (Duke Ellington)
06. Summertime (George Gershwin
07. Lover, Come Back to Me (Sigmund Romberg – Oscar Hammerstein II)
08. Flamingo (Edmund Anderson – Ted Grouya)
09. Swanee River (Stephen Foster)
10. When the Saints Go Marching In (United States gospel hymn)
11. Alexander’s Ragtime Band (Irving Berlin)
12. Some of these Days (Shelton Brooks)
13. Loveless Love (William Christopher Handy)
14. Buona Sera, Signorina (Louis Prima)
15. Softly As in a Morning Sunrise (Sigmund Romberg – Oscar Hammerstein II)
16. I Can’t Give You Anything but Love (Jimmy Mc Hugh – Dorothy Fields)
17. On the Sunny Side of the Street (Jimmy Mc Hugh – Dorothy Fields)
18. Взяв би я бандуру (українська народна пісня)
19. Ой не ходи, Грицю (українська народна пісня)
20. Журавлі (Лев Лепкий – Богдан Лепкий)
21. Вечір у Львові (Ігор Хома)

Тривалість: 01:19:23
Мова: українська (18, 20,21); відсутня (01-17, 19)
Бітрейт: 434 кб/с
EAC Log


Exact Audio Copy V1.0 beta 3 from 29. August 2011

Отчёт EAC об извлечении, выполненном 23. сентября 2011, 1:10

Ігор Хома. Оркестр Ритм / Ігор Хома. Оркестр Ритм

Дисковод: PHILIPS SPD2519T Adapter: 2 ID: 0

Режим чтения : Достоверность
Использование точного потока : Да
Отключение кэша аудио : Да
Использование указателей C2 : Нет

Коррекция смещения при чтении : 6
Способность читать области Lead-in и Lead-out : Нет
Заполнение пропущенных сэмплов тишиной : Да
Удаление блоков с тишиной в начале и конце : Нет
При вычислениях CRC использовались нулевые сэмплы : Да
Интерфейс : Встроенный Win32-интерфейс для Win NT/2000

Выходной формат : Пользовательский кодировщик
Выбранный битрейт : 768 kBit/s
Качество : Высокий
Добавление ID3-тега : Да
Утилита сжатия : D:\soft_2\EAC\Exact Audio Copy\Flac\flac.exe
Дополнительные параметры : -V -8 -T "Date=%year%" -T "Genre=%genre%" %source%

TOC извлечённого CD

Трек | Старт | Длительность | Начальный сектор | Конечный сектор
---------------------------------------------------------------------
1 | 0:00.00 | 2:49.13 | 0 | 12687
2 | 2:49.13 | 4:56.73 | 12688 | 34960
3 | 7:46.11 | 3:01.10 | 34961 | 48545
4 | 10:47.21 | 4:51.70 | 48546 | 70440
5 | 15:39.16 | 2:49.69 | 70441 | 83184
6 | 18:29.10 | 3:19.12 | 83185 | 98121
7 | 21:48.22 | 4:37.62 | 98122 | 118958
8 | 26:26.09 | 1:55.03 | 118959 | 127586
9 | 28:21.12 | 3:59.47 | 127587 | 145558
10 | 32:20.59 | 4:55.60 | 145559 | 167743
11 | 37:16.44 | 2:29.26 | 167744 | 178944
12 | 39:45.70 | 2:57.54 | 178945 | 192273
13 | 42:43.49 | 2:41.66 | 192274 | 204414
14 | 45:25.40 | 3:04.00 | 204415 | 218214
15 | 48:29.40 | 6:28.67 | 218215 | 247381
16 | 54:58.32 | 4:59.20 | 247382 | 269826
17 | 59:57.52 | 6:54.38 | 269827 | 300914
18 | 66:52.15 | 3:20.44 | 300915 | 315958
19 | 70:12.59 | 2:49.73 | 315959 | 328706
20 | 73:02.57 | 2:45.27 | 328707 | 341108
21 | 75:48.09 | 3:35.62 | 341109 | 357295

Характеристики диапазона извлечения и сообщения об ошибках

Выбранный диапазон

Имя файла M:\Роздачі\Ігор Хома. Medicus. (5 CD, box set)\Ігор Хома. Оркестр Ритм\Ігор Хома. Оркестр Ритм - Ігор Хома. Оркестр Ритм.wav

Пиковый уровень 100.0 %
Скорость извлечения 2.4 X
Качество диапазона 100.0 %
CRC теста AB70E719
CRC копии AB70E719
Копирование... OK

Ошибок не произошло

Конец отчёта

==== Контрольная сумма отчёта 9B75CE5B298B65E8AD4B36BAFE4B416E164A37A9708F1ADDE115D16319714326 ====
Ігор Хома. Ансамбль "Медікус"




01. Nineteenager’s Riff (Ptaszyn Wroblewski)
02. Полюшко-поле (Лєв Кніппер)
03. Whisper Not (Benny Golson)
04. Tintarella di Luna (De Filippi – F. Migliacci)
05. Well, You Needn’t (Thelonious Monk)
06. Sombrero Sam (Charles Lloyd)
07. Forest Flower (Charles Lloyd)
08. A Man and a Woman (F. Lai)
09. Afternoon Walk (John Lewis)
10. Половецькі танці (парафраза на тему Олександра Бородіна з опери "Князь Ігор")
11. Carnival (Carlos Santana)

Бонус:
12. Живий голос Ігоря Хоми
13. Summertime (George Gershwin)
14. Живий голос Ігоря Хоми
15. Stompin’ at the Savoy (Edgar Sampson – Benny Goodman – Chick Webb – Andy Razaf)
16. Fly Me to the Moon (Bart Howard)

Тривалість: 01:10:31
Мова: українська (12, 14); відсутня (01-11, 13, 15, 16)
Бітрейт: 653 кб/с
EAC Log


Exact Audio Copy V1.0 beta 3 from 29. August 2011

Отчёт EAC об извлечении, выполненном 23. сентября 2011, 22:47

Ігор Хома. Ансамбль Медікус / Ігор Хома. Ансамбль Медікус

Дисковод: PHILIPS SPD2519T Adapter: 2 ID: 0

Режим чтения : Достоверность
Использование точного потока : Да
Отключение кэша аудио : Да
Использование указателей C2 : Нет

Коррекция смещения при чтении : 6
Способность читать области Lead-in и Lead-out : Нет
Заполнение пропущенных сэмплов тишиной : Да
Удаление блоков с тишиной в начале и конце : Нет
При вычислениях CRC использовались нулевые сэмплы : Да
Интерфейс : Встроенный Win32-интерфейс для Win NT/2000

Выходной формат : Пользовательский кодировщик
Выбранный битрейт : 768 kBit/s
Качество : Высокий
Добавление ID3-тега : Да
Утилита сжатия : D:\soft_2\EAC\Exact Audio Copy\Flac\flac.exe
Дополнительные параметры : -V -8 -T "Date=%year%" -T "Genre=%genre%" %source%

TOC извлечённого CD

Трек | Старт | Длительность | Начальный сектор | Конечный сектор
---------------------------------------------------------------------
1 | 0:00.00 | 4:54.02 | 0 | 22051
2 | 4:54.02 | 7:36.70 | 22052 | 56321
3 | 12:30.72 | 5:05.44 | 56322 | 79240
4 | 17:36.41 | 2:38.32 | 79241 | 91122
5 | 20:14.73 | 5:11.60 | 91123 | 114507
6 | 25:26.58 | 5:35.31 | 114508 | 139663
7 | 31:02.14 | 6:25.69 | 139664 | 168607
8 | 37:28.08 | 2:32.19 | 168608 | 180026
9 | 40:00.27 | 5:08.10 | 180027 | 203136
10 | 45:08.37 | 4:49.57 | 203137 | 224868
11 | 49:58.19 | 4:59.42 | 224869 | 247335
12 | 54:57.61 | 2:14.43 | 247336 | 257428
13 | 57:12.29 | 4:21.02 | 257429 | 277005
14 | 61:33.31 | 1:54.20 | 277006 | 285575
15 | 63:27.51 | 3:03.23 | 285576 | 299323
16 | 66:30.74 | 4:01.01 | 299324 | 317399

Характеристики диапазона извлечения и сообщения об ошибках

Выбранный диапазон

Имя файла M:\Роздачі\Ігор Хома. Medicus. (5 CD, box set)\Ігор Хома. Ансамбль Медікус\Ігор Хома. Ансамбль Медікус - Ігор Хома. Ансамбль Медікус.wav

Пиковый уровень 100.0 %
Скорость извлечения 3.4 X
Качество диапазона 99.9 %
CRC теста 799FE752
CRC копии 799FE752
Копирование... OK

Ошибок не произошло

Конец отчёта

==== Контрольная сумма отчёта B08AC1D1B54E38A2696D6A58C9775AFA2D867816F79564B0DD8D16FB20247D86 ====
Ігор Хома. Легенда українського джазу




01. Козачок (І. Хома, імпровізація на тему українського народного танцю)
02. Їхав козак за Дунай (І. Хома, варіація на тему української народної пісні)
03. Карпати (І. Хома)
04. Ноктюрн (І. Хома, фантазія на тему "Вечірньої пісні" К. Стеценка)
05. Верховина (І. Хома)
06. Ой, зацвіли фіялоньки (І. Хома, фантазія на тему української народної пісні)
07. Вальс (І. Хома, з т/п "Гори димлять")
08. Піраміди (І. Хома)
09. Аркан (І. Хома, імпровізація на тему гуцульського танцю)

Бонус:
10. Березневий дзвін (І. Хома - Р. Бондар)
11. Живий голос Ігоря Хоми
12. Ой, зацвіли фіялоньки (українська народна пісня) обр. І. Хоми
13. Синя чічка (українська народна пісня) обр. І. Хоми
14. Сумна я була (українська народна пісня з м/ф "Залицяльники") обр. І. Хоми
15. Дорога (І. Хома, з м/ф "Залицяльники")

Тривалість: 01:15:42
Мова: українська (10-14); відсутня (01-09, 15)
Бітрейт: 744 кб/с
EAC Log


Exact Audio Copy V1.0 beta 3 from 29. August 2011

Отчёт EAC об извлечении, выполненном 24. сентября 2011, 0:48

Ігор Хома. Ритм/Медікус / Легенда українського джазу

Дисковод: PHILIPS SPD2519T Adapter: 2 ID: 0

Режим чтения : Достоверность
Использование точного потока : Да
Отключение кэша аудио : Да
Использование указателей C2 : Нет

Коррекция смещения при чтении : 6
Способность читать области Lead-in и Lead-out : Нет
Заполнение пропущенных сэмплов тишиной : Да
Удаление блоков с тишиной в начале и конце : Нет
При вычислениях CRC использовались нулевые сэмплы : Да
Интерфейс : Встроенный Win32-интерфейс для Win NT/2000

Выходной формат : Пользовательский кодировщик
Выбранный битрейт : 768 kBit/s
Качество : Высокий
Добавление ID3-тега : Да
Утилита сжатия : D:\soft_2\EAC\Exact Audio Copy\Flac\flac.exe
Дополнительные параметры : -V -8 -T "Date=%year%" -T "Genre=%genre%" %source%

TOC извлечённого CD

Трек | Старт | Длительность | Начальный сектор | Конечный сектор
---------------------------------------------------------------------
1 | 0:00.00 | 4:19.27 | 0 | 19451
2 | 4:19.27 | 5:49.19 | 19452 | 45645
3 | 10:08.46 | 7:00.41 | 45646 | 77186
4 | 17:09.12 | 11:42.16 | 77187 | 129852
5 | 28:51.28 | 3:34.14 | 129853 | 145916
6 | 32:25.42 | 4:40.44 | 145917 | 166960
7 | 37:06.11 | 1:55.34 | 166961 | 175619
8 | 39:01.45 | 5:23.11 | 175620 | 199855
9 | 44:24.56 | 6:02.55 | 199856 | 227060
10 | 50:27.36 | 8:33.58 | 227061 | 265593
11 | 59:01.19 | 4:11.65 | 265594 | 284483
12 | 63:13.09 | 3:14.30 | 284484 | 299063
13 | 66:27.39 | 3:34.29 | 299064 | 315142
14 | 70:01.68 | 2:58.61 | 315143 | 328553
15 | 73:00.54 | 2:41.52 | 328554 | 340680

Характеристики диапазона извлечения и сообщения об ошибках

Выбранный диапазон

Имя файла M:\Роздачі\Ігор Хома. Medicus. (5 CD, box set)\Ігор Хома. Легенда українського джазу\Ігор Хома. Ритм,Медікус - Легенда українського джазу.wav

Пиковый уровень 100.0 %
Скорость извлечения 4.8 X
Качество диапазона 99.9 %
CRC теста 2F6314D2
CRC копии 2F6314D2
Копирование... OK

Ошибок не произошло

Конец отчёта

==== Контрольная сумма отчёта 70A167F0621445F6DE6E57FCE8399A546B1F825BB29CF04BD99D0DED79AFB6CA ====
Пісні Ігоря Хоми




01. Срібне коло (Олег Дорош)
02. Простори Вітчизни (Юрій Гаврилюк)
03. Залицяльники (Іван Попович)
04. Падаюча зірка (Лючія Красота)
05. Спогад про Італію (Юрій Гаврилюк)
06. Верона (Олег Дорош)
07. Баба-Яга (Леся Стадник)
08. Криниця (Олег Дорош)
09. Білі скрипки зими (Здіслав Марчій)
10. Море (Лючія Красота, Юрій Гаврилюк)
11. Робінзон ( Ріта Кабанова)
12. Каралуна (Олег Дорош)
13. Ти і я (Леон Фрайфельд)
14. Прощай, Львів (Юрій Гаврилюк, Олег Дорош)
15. Львівська зима (Оксана Трух, Богдан Цісінський)
16. Вечір у Львові ( Люба Чайковська)
17. Атомний вальс (Леон Фрайфельд)
18. Козацька балада (Олег Дорош)
19. Балада про юнака (Леон Фрайфельд, Олег Дорош)
20. Цей світ, як маків цвіт (Олег Дорош)
21. Поросли межі терном (Олег Дорош)

Тривалість: 01:18:43
Мова: українська
Бітрейт: 735 кб/с
EAC Log


Exact Audio Copy V1.0 beta 3 from 29. August 2011

Отчёт EAC об извлечении, выполненном 24. сентября 2011, 13:19

Ансамбль Медікус / Пісні Ігоря Хоми

Дисковод: PHILIPS SPD2519T Adapter: 2 ID: 0

Режим чтения : Достоверность
Использование точного потока : Да
Отключение кэша аудио : Да
Использование указателей C2 : Нет

Коррекция смещения при чтении : 6
Способность читать области Lead-in и Lead-out : Нет
Заполнение пропущенных сэмплов тишиной : Да
Удаление блоков с тишиной в начале и конце : Нет
При вычислениях CRC использовались нулевые сэмплы : Да
Интерфейс : Встроенный Win32-интерфейс для Win NT/2000

Выходной формат : Пользовательский кодировщик
Выбранный битрейт : 768 kBit/s
Качество : Высокий
Добавление ID3-тега : Да
Утилита сжатия : D:\soft_2\EAC\Exact Audio Copy\Flac\flac.exe
Дополнительные параметры : -V -8 -T "Date=%year%" -T "Genre=%genre%" %source%

TOC извлечённого CD

Трек | Старт | Длительность | Начальный сектор | Конечный сектор
---------------------------------------------------------------------
1 | 0:00.00 | 3:48.02 | 0 | 17101
2 | 3:48.02 | 4:19.74 | 17102 | 36600
3 | 8:08.01 | 3:24.03 | 36601 | 51903
4 | 11:32.04 | 4:10.08 | 51904 | 70661
5 | 15:42.12 | 5:21.67 | 70662 | 94803
6 | 21:04.04 | 4:15.73 | 94804 | 114001
7 | 25:20.02 | 2:21.02 | 114002 | 124578
8 | 27:41.04 | 5:50.08 | 124579 | 150836
9 | 33:31.12 | 2:58.10 | 150837 | 164196
10 | 36:29.22 | 5:17.68 | 164197 | 188039
11 | 41:47.15 | 3:59.17 | 188040 | 205981
12 | 45:46.32 | 3:02.00 | 205982 | 219631
13 | 48:48.32 | 3:03.62 | 219632 | 233418
14 | 51:52.19 | 3:06.09 | 233419 | 247377
15 | 54:58.28 | 2:40.05 | 247378 | 259382
16 | 57:38.33 | 3:38.47 | 259383 | 275779
17 | 61:17.05 | 3:00.18 | 275780 | 289297
18 | 64:17.23 | 2:56.70 | 289298 | 302567
19 | 67:14.18 | 3:31.61 | 302568 | 318453
20 | 70:46.04 | 3:41.58 | 318454 | 335086
21 | 74:27.62 | 4:15.57 | 335087 | 354268

Характеристики диапазона извлечения и сообщения об ошибках

Выбранный диапазон

Имя файла M:\Роздачі\Ігор Хома. Medicus. (5 CD, box set)\Пісні Ігоря Хоми\Ансамбль Медікус - Пісні Ігоря Хоми.wav

Пиковый уровень 100.0 %
Скорость извлечения 3.4 X
Качество диапазона 100.0 %
CRC теста 16CD39D2
CRC копии 16CD39D2
Копирование... OK

Ошибок не произошло

Конец отчёта

==== Контрольная сумма отчёта 11C0C41F8E597E74F249FB98B4F640858B3680AEEC8353E1B8C53B822C08E86E ====
Співає Олег Дорош




01. Срібне коло
02. Поросли межі терном
03. Криниця
04. Цей світ, як маків цвіт
05. Верона
06. Балада про юнака (Л. Фрайфельд, Олег Дорош)
07. Каралуна
08. Прощай, Львів (Ю. Гаврилюк, Олег Дорош)
09. Козацька балада
10. Далеко-далеко
11. Любове моя
12. Грай, сопілко (Іван Попович, Олег Дорош)
13. Ровесники
14. У Карпатах ходить осінь
15. Вершини
16. Не судилось
17. Очей питаю
18. Пісня буде поміж нас (В. Івасюк, Олег Дорош)

Тривалість: 01:10:57
Мова: українська
Бітрейт: 662 кб/с
EAC Log


Exact Audio Copy V1.0 beta 3 from 29. August 2011

Отчёт EAC об извлечении, выполненном 24. сентября 2011, 14:17

Олег Дорош / Співає Олег Дорош

Дисковод: PHILIPS SPD2519T Adapter: 2 ID: 0

Режим чтения : Достоверность
Использование точного потока : Да
Отключение кэша аудио : Да
Использование указателей C2 : Нет

Коррекция смещения при чтении : 6
Способность читать области Lead-in и Lead-out : Нет
Заполнение пропущенных сэмплов тишиной : Да
Удаление блоков с тишиной в начале и конце : Нет
При вычислениях CRC использовались нулевые сэмплы : Да
Интерфейс : Встроенный Win32-интерфейс для Win NT/2000

Выходной формат : Пользовательский кодировщик
Выбранный битрейт : 768 kBit/s
Качество : Высокий
Добавление ID3-тега : Да
Утилита сжатия : D:\soft_2\EAC\Exact Audio Copy\Flac\flac.exe
Дополнительные параметры : -V -8 -T "Date=%year%" -T "Genre=%genre%" %source%

TOC извлечённого CD

Трек | Старт | Длительность | Начальный сектор | Конечный сектор
---------------------------------------------------------------------
1 | 0:00.00 | 3:48.02 | 0 | 17101
2 | 3:48.02 | 4:17.57 | 17102 | 36433
3 | 8:05.59 | 5:50.08 | 36434 | 62691
4 | 13:55.67 | 3:41.58 | 62692 | 79324
5 | 17:37.50 | 4:15.73 | 79325 | 98522
6 | 21:53.48 | 3:31.61 | 98523 | 114408
7 | 25:25.34 | 3:02.00 | 114409 | 128058
8 | 28:27.34 | 3:06.09 | 128059 | 142017
9 | 31:33.43 | 2:56.70 | 142018 | 155287
10 | 34:30.38 | 4:31.03 | 155288 | 175615
11 | 39:01.41 | 4:34.71 | 175616 | 196236
12 | 43:36.37 | 5:21.35 | 196237 | 220346
13 | 48:57.72 | 3:22.32 | 220347 | 235528
14 | 52:20.29 | 3:22.12 | 235529 | 250690
15 | 55:42.41 | 3:10.58 | 250691 | 264998
16 | 58:53.24 | 3:25.33 | 264999 | 280406
17 | 62:18.57 | 3:24.73 | 280407 | 295779
18 | 65:43.55 | 5:13.66 | 295780 | 319320

Характеристики диапазона извлечения и сообщения об ошибках

Выбранный диапазон

Имя файла M:\Роздачі\Ігор Хома. Medicus. (5 CD, box set)\Співає Олег Дорош\Олег Дорош - Співає Олег Дорош.wav

Пиковый уровень 100.0 %
Скорость извлечения 4.6 X
Качество диапазона 100.0 %
CRC теста 3A2E7403
CRC копии 3A2E7403
Копирование... OK

Ошибок не произошло

Конец отчёта

==== Контрольная сумма отчёта 7A1E741EF56CAAAE5DD94CF7589E5FF70A7878FD4C7D442000E0ABF63564344B ====
Тривалість: 06:15:19
Мова: українська
Аудіо-кодек: FLAC
Бітрейт: lossless (~434-744 кбіт/сек)
Джерело: власний ріп власних CD
Додаткова інформація:


Ігор Хома – засновник української школи джазової музики, автор джазових п’єс та імпровізацій, естрадних пісень, музики до драматичних вистав та музичних фільмів, організатор та керівник ансамблю "Медікус". Народився 29 квітня 1929 року в Кракові (Польща). Через чотири роки сім’я переїхала у місто Підволочиськ Тернопільської області, а в 1945 р. – у Львів, де Ігор закінчив середню школу та медичний інститут (1953). Після отримання диплому лікаря працював в інституті епідеміології, мікробіології та гігієни науковим співробітником. Захистивши кандидатську дисертацію, став викладачем Львівського медичного інституту, де отримав звання доцента (1970) і де працював до кінця свого життя...
Побувавши на фестивалі молоді і студентів у Москві (1957), де виступали джазові колективи, Ігор Хома запалився ідеєю організувати свій ансамбль. Отож, він створив перший, після Другої світової війни, український джазовий ансамбль у Львові (1958-1960). Жорстка дисципліна, якою відзначався оркестр "Ритм" (назва "Медікус" – від 1965 р.) базувалася на авторитеті його організатора і незмінного керівника.
Ігор Хома формував і розвивав імпровізаційний джаз, орієнтований на український мелос. Він мав велику відвагу пропагувати джаз тоді, коли радянська система намагалася знищити у мистецтві все неординарне та ще й з виразним національним акцентом.
Джаз-оркестр І. Хоми уперше представляв Україну на фестивалі джазової музики в Тарту (1960) та був єдиним українським колективом на міжнародних фестивалях у Талліні (1965, 66, 67), де збиралися корифеї джазової музики: Г. Гаранян, К. Бахолдін, Р. Паулс, З. Намисловскі, Ч. Ллойд, О. Ільїн, О. Зубов тощо. Тісні творчі стосунки єднали І. Хому із трубачем О. Козловим, теоретиком джазу О. Баташовим та ін.
Ансамбль "Медікус" брав участь у таких джазових фестивалях, як: "Юність-1973" (Дніпропетровськ), "Джаз над Одрою-1972" (Вроцлав), "Меморіал Кшиштофа Комеди-1977" (Варшава).
Ансамбль "Медікус" випустив дві платівки (всесоюзна фірма "Мелодія", 1975, 1976).
Перший український музичний фільм Львівської студії телебачення "Залицяльники" (1968) був найдорожчим для І.Хоми, адже у телефільмі звучали його композиції та грав під його орудою "Медікус".
Останній концерт ансамблю "Медікус" під керівництвом Ігоря Хоми відбувся у Львівському оперному театрі (1981)...
Якщо Ви справді бажаєте підтримати українське - після прослуховування, якщо музика вам сподобалась, придбайте ліцензійний диск. Підтримаймо вітчизняних виконавців!


Золотий реліз (завантажене не впливає на рейтинг)
 Трекер:    Зареєстрований   

Завантажити / скачати українську музику



відео для новачків



 Зареєстрований:   2012-02-08 23:57
 Розмір:   1.95 GB 
 Оцінка музики:   9.9/10 (Голосів: 13)
   
ssTAss 
Модератор музики


З нами з: 05.07.08
Востаннє: 05.12.16
Повідомлень: 10941

2011-09-24 22:02  
ого!
шикарний реліз.. Ви б бачили як я почав швидко шукати місце на компі))
курча, тіко 600 метрів вільно.. нічо, зара шось будем видаляти Wide grin

та й оформили бездоганно, респект
тільки
gosha.samovar написано:
Мова: українська

не всюди... дуже багато інструментальних речей (де мова відсутня)
треба вказати до кожного альбому

gosha.samovar 
VIP


З нами з: 08.09.10
Востаннє: 05.12.16
Повідомлень: 400

2011-09-24 23:02  
Ммм, спеціально переслухав. Українська мова таки наявна на кожному Сі-Ді Wide grin . Але все одно дописав. Дякую на доброму слові.
ssTAss 
Модератор музики


З нами з: 05.07.08
Востаннє: 05.12.16
Повідомлень: 10941

2011-09-24 23:19  
gosha.samovar написано:
Українська мова таки наявна на кожному Сі-Ді

говорю не про СD, а про треки
мова вказується потреково
якщо трек інструментальний, то так і пишемо (або відсутня)
якщо ж у всіх ТРЕКАХ є укр мова, то не треба дублювати інфу
але у Вашому релізі це не так
на першому, другому і третьому дисках дуже багато інструментальних речей

Додано через 2 хвилини 4 секунди:

наприклад
Мова: українська (1-12), відсутня (13-18)

gosha.samovar 
VIP


З нами з: 08.09.10
Востаннє: 05.12.16
Повідомлень: 400

2011-09-24 23:35  
Всьо.
Lev 
VIP


З нами з: 14.10.09
Востаннє: 05.12.16
Повідомлень: 1819

2011-09-25 06:39  
о, це солідна роздача, дякую
колись накидав оком на цей бокссет, та все не скупиш Happy

gorislavets 
VIP


З нами з: 29.03.11
Востаннє: 28.11.16
Повідомлень: 372

2012-02-04 04:52  
А в МП-3 є (крім Дороша)?
gosha.samovar 
VIP


З нами з: 08.09.10
Востаннє: 05.12.16
Повідомлень: 400

2012-02-04 11:37  
Цитата:
А в МП-3 є (крім Дороша)?

Невдовзі планую зробити. До того ж скани скоро будуть.

gosha.samovar 
VIP


З нами з: 08.09.10
Востаннє: 05.12.16
Повідомлень: 400

2012-02-08 23:56  
Торрент-файл замінено, оскільки до роздачі долучено скани поліграфії. Вибачте за незручності.
ssTAss 
Модератор музики


З нами з: 05.07.08
Востаннє: 05.12.16
Повідомлень: 10941

2012-02-09 00:08  
gosha.samovar написано:
Торрент-файл замінено,

моя Вам порада
коли змінюєте торрент-файл, то новий називайте так само як старий, вибирайте його (але не додавайте, старий при тому не видаляйте) і тисніть "додати нову версію файлу"
тоді і статистика зберігається, і подяки, і є шанс, що ті, хто був на роздачі залишаться, а тільки довантажать зміни

gosha.samovar 
VIP


З нами з: 08.09.10
Востаннє: 05.12.16
Повідомлень: 400

2012-02-09 00:15  
Спасибі, тепер буду знати.
mr.killer 
Свій


З нами з: 11.08.10
Востаннє: 03.12.16
Повідомлень: 146

2015-02-14 23:34  
роздайте будь ласка
ssTAss 
Модератор музики


З нами з: 05.07.08
Востаннє: 05.12.16
Повідомлень: 10941

2015-02-15 01:24  
зараз допоможу з роздачею

Додано через 1 годину 1 хвилину 49 секунд:

став на роздачу - перевірку пройшло тільки 99,4% файлів
ніби нічого не змінював, дивно
але Ви і тих не вантажите...
зачекайте когось, хто ще стане на роздачу

mr.killer 
Свій


З нами з: 11.08.10
Востаннє: 03.12.16
Повідомлень: 146

2015-02-15 10:36  
Можливо у Вас немає пізніше доданої поліграфії? Ставайте на роздачу, якось разом потихеньку викачаємо
gosha.samovar 
VIP


З нами з: 08.09.10
Востаннє: 05.12.16
Повідомлень: 400

2015-02-15 12:48  
Я тут. Качайте на здоров'я.
Ваш часовий пояс: GMT + 2 Години

Нова тема   Відповісти