Завантажити та скачати торренти українською


Хороший рік / A Good Year (2006) 720p Ukr | Sub Ukr/Eng

Нові коментарі

Нова тема   Відповісти
Автор Повідомлення
DеLight 
Відео Гуртом - фільмокрай
Відео Гуртом - фільмокрай


З нами з: 24.08.11
Востаннє: 17.11.16
Повідомлень: 664

2011-09-23 16:53  
Хороший рік / A Good Year (2006) 720p Ukr | Sub Ukr/Eng



«Почни життя заново»

Жанр: драма, комедія, романтичний
Країна: США , Великобританія

6.8 (28,788 голосів)

Кіностудія / кінокомпанія: Fox 2000 Pictures, Scott Free Productions
Режисер: Рідлі Скотт / Ridley Scott
Актори: Рассел Кроу / Russell Crowe, Альберт Фінні / Albert Finney, Маріон Котійяр / Marion Cotillard, Дідьє Бурдон / Didier Bourdon, Еббі Корніш / Abbie Cornish, Том Холландер / Tom Hollander, Фредді Хаймор / Freddie Highmore

Сюжет:
Ділок Лондонської фондової біржі, шалено розумний, кмітливий менеджер і за сумісництвом великий зануда успадковує виноробню в Провансі. Після прибуття до Франції він виявляє, що, окрім нього, є ще люди, що претендують на його законну власність. Ланцюжок неймовірних подій і відкриттів примусять його по-новому поглянути на дійсні цінності цього світу.


Тривалість: 01:57:28
Якість:
Відео:
кодек:
розмір кадру: 1280 x 544
бітрейт: 4 860 кб/с

Аудіо:
мова: українська
переклад: двоголосий закадровий
кодек: 5.1
бітрейт: 448 кб/с

Джерело озвучення:


Субтитри:
мова: 1) українська; 2) англійська
тип: програмні (м'які)
формат: *.srt

->переглянути<-

General
Unique ID : 185290641399552257042407076103517982330 (0x8B65ADF1A7A9066C9F54316C27C54E7A)
Complete name : D:\Moviemaker\A Good Year (2006) 720p [Ukr, sub Ukr, Eng] [Hurtom].mkv
Format : Matroska
File size : 4.36 GiB
Duration : 1h 57mn
Overall bit rate : 5 310 Kbps
Movie name : A Good Year (2006) 720p [Ukr, sub Ukr, Eng] [Hurtom] by Dony
Encoded date : UTC 2011-09-23 09:52:57
Writing application : mkvmerge v4.8.0 ('I Got The...') зібрано May 24 2011 03:12:58
Writing library : libebml v1.2.0 + libmatroska v1.1.0

Video
ID : 1
Format : AVC
Format/Info : Advanced Video Codec
Format profile : [email protected]
Format settings, CABAC : Yes
Format settings, ReFrames : 6 frames
Format settings, GOP : M=1, N=2
Codec ID : V_MPEG4/ISO/AVC
Duration : 1h 57mn
Bit rate : 4 860 Kbps
Width : 1 280 pixels
Height : 544 pixels
Display aspect ratio : 2.35:1
Frame rate : 23.976 fps
Color space : YUV
Chroma subsampling : 4:2:0
Bit depth : 8 bits
Scan type : Progressive
Bits/(Pixel*Frame) : 0.291
Stream size : 3.90 GiB (90%)
Title : A Good Year (2006) 720p
Writing library : core 58 svn-736M
Encoding settings : cabac=1 / ref=6 / deblock=1:-3:-3 / analyse=0x3:0x113 / me=umh / subme=7 / me-prepass=0 / brdo=1 / mixed_ref=1 / me_range=16 / chroma_me=1 / trellis=1 / 8x8dct=1 / cqm=2 / deadzone=21,11 / chroma_qp_offset=0 / threads=3 / nr=0 / decimate=1 / mbaff=0 / bframes=3 / b_pyramid=1 / b_adapt=1 / b_bias=0 / direct=3 / wpredb=1 / bime=1 / keyint=250 / keyint_min=25 / scenecut=40(pre) / rc=2pass / bitrate=4860 / ratetol=1.0 / rceq='blurCplx^(1-qComp)' / qcomp=1.00 / qpmin=10 / qpmax=51 / qpstep=4 / cplxblur=20.0 / qblur=0.5 / ip_ratio=1.40 / pb_ratio=1.30 / aq=1:0.5:13.0
Language : English

Audio
ID : 2
Format : AC-3
Format/Info : Audio Coding 3
Mode extension : CM (complete main)
Codec ID : A_AC3
Duration : 1h 57mn
Bit rate mode : Constant
Bit rate : 448 Kbps
Channel(s) : 6 channels
Channel positions : Front: L C R, Side: L R, LFE
Sampling rate : 48.0 KHz
Bit depth : 16 bits
Compression mode : Lossy
Stream size : 376 MiB (8%)
Title : 5.1, 448 kbps {TET}
Language : Ukrainian

Text #1
ID : 3
Format : UTF-8
Codec ID : S_TEXT/UTF8
Codec ID/Info : UTF-8 Plain Text
Language : Ukrainian

Text #2
ID : 4
Format : UTF-8
Codec ID : S_TEXT/UTF8
Codec ID/Info : UTF-8 Plain Text
Language : English
->переглянути<-











Джерело: &
Подяка за українську доріжку NemoInFire, за українські субтитри karvai0 та w2958l, pan_oleg за постер.
Особиста оцінка: 9 - мені сподобалося

Хороший рік / A Good Year (2006) Ukr/Eng | Sub Ukr/Eng [2.18 GB] (окрему англ. доріжку можна завантажити з цього релізу)


 Трекер:    Зареєстрований   

Завантажити / скачати фільм українською



відео для новачків



 Зареєстрований:   2011-09-23 16:53
 Розмір:   4.36 GB 
 Оцінка фільму:   10/10 (Голосів: 21)
   
Інші релізи
Віктор 
Відео Гуртом - субтитрування
Відео Гуртом - субтитрування


З нами з: 09.01.10
Востаннє: 05.12.16
Повідомлень: 8663

2011-09-23 17:31  
Двоголосий
DеLight 
Відео Гуртом - фільмокрай
Відео Гуртом - фільмокрай


З нами з: 24.08.11
Востаннє: 17.11.16
Повідомлень: 664

2011-09-23 17:38  
w2958l написано:
Двоголосий


Виправлено!

NemoInFire 
Відео Гуртом - фільмокрай
Відео Гуртом - фільмокрай


З нами з: 12.11.07
Востаннє: 05.12.16
Повідомлень: 583

2011-09-23 18:13  
Відео високої роздільної здатності для стрічки Високої якості.
Dоnу, дякую за реліз.

skuline 
Свій


З нами з: 17.12.11
Востаннє: 04.12.16
Повідомлень: 114

2013-05-06 10:32  
Фільм один з найкращих, Расел Кроу та Рідлі Скот на висоті , раджу дивитись. 10 балів !!!
Ваш часовий пояс: GMT + 2 Години

Нова тема   Відповісти