Завантажити та скачати торренти українською


Хенкок / Hancock (2008) 720p-mini

Нові коментарі

Нова тема   Відповісти
Автор Повідомлення
Drool 
VIP


З нами з: 17.04.10
Востаннє: 05.12.16
Повідомлень: 1263

2011-09-23 01:09  
Хенкок / Hancock (2008) 720p-mini




Жанр: фантастика, бойовик, драма, комедія
Країна: США



Кіностудія / кінокомпанія: Blue Light, Columbia Pictures, Forward Pass, GH Three, Overbrook Entertainment, Relativity Media, Weed Road Pictures
Режисер: Пітер Берг
Актори: Вілл Сміт, Чарліз Терон, Джейсон Бейтмен, Джо Хед, Едді Марсан, Девід Метті, Метрікс Фіттен, Томас Леннон, Джонні Галецький, Хейлі Мері Норман, Дороті Кецчі, Мартін Клебба, Аківа Голдсман, Майкл Манн, Бред Леранд

Сюжет:
Є герої, є супергерої, і є Хенкок. Володіння надздібностями припускає відповідальність, всі знають це — окрім нього. За будь-яке завдання він береться з душею і добрими намірами, рятує життя людей — ціною надзвичайних руйнувань та збитків. Врешті-решт, терпіння громадськості підходить до кінця: люди вдячні своєму місцевому героєві, але іноді не розуміють, чим заслужили таке покарання.

Хенкок не з тих хлопців, кого хвилює якась там громадська думка, але одного разу, після чергового подвигу, рятуючи високопоставленого піарника Рея, він раптом розуміє, що в деякому розумінні він може бути вразливий. З цим важко змиритися, особливо на думку Мері, дружини Рея, яка вважає, що Хенкок просто безнадійний.


Тривалість: 01:32:13
Якість: 720p-mini
Відео:
кодек:
розмір кадру: 1280x544
бітрейт: 2495 кб/с

Аудіо:
мова: українська
переклад: професійний дубльований
кодек: 5.1
бітрейт: 448 кб/с

Джерело озвучення:
Звіт MediaInfo
General
Unique ID : 268674773309390628366736870104674489818 (0xCA20E10E2057972AF742F6A2C23255DA)
Complete name : /mnt/disk_d/Temp/Torr/Хенкок/Hancock.2008.D.Ukr.BRRip.720p.mkv
Format : Matroska
File size : 1.89 GiB
Duration : 1h 32mn
Overall bit rate : 2 936 Kbps
Movie name : Хенкок / Hancock (2008) BRRip 720p Ukr [video by HDScene Release]
Encoded date : UTC 2011-09-22 19:10:46
Writing application : mkvmerge v4.4.0 ('Die Wiederkehr') зібрано Apr 5 2011 20:08:52
Writing library : libebml v1.0.0 + libmatroska v1.0.0

Video
ID : 1
Format : AVC
Format/Info : Advanced Video Codec
Format profile : [email protected]
Format settings, CABAC : Yes
Format settings, ReFrames : 10 frames
Format settings, GOP : M=1, N=48
Muxing mode : Header stripping
Codec ID : V_MPEG4/ISO/AVC
Duration : 1h 32mn
Bit rate : 2 495 Kbps
Width : 1 280 pixels
Height : 544 pixels
Display aspect ratio : 2.35:1
Frame rate : 23.976 fps
Color space : YUV
Chroma subsampling : 4:2:0
Bit depth : 8 bits
Scan type : Progressive
Bits/(Pixel*Frame) : 0.149
Stream size : 1.57 GiB (83%)
Title : Hancock (2008) BRRip 720p (video by HDScene Release)
Writing library : core 115 r1995 c1e60b9
Encoding settings : cabac=1 / ref=10 / deblock=1:0:0 / analyse=0x3:0x113 / me=umh / subme=10 / psy=1 / psy_rd=2.00:1.00 / mixed_ref=1 / me_range=32 / chroma_me=1 / trellis=2 / 8x8dct=1 / cqm=0 / deadzone=21,11 / fast_pskip=0 / chroma_qp_offset=-4 / threads=3 / sliced_threads=0 / nr=0 / decimate=1 / interlaced=0 / bluray_compat=0 / constrained_intra=0 / bframes=3 / b_pyramid=2 / b_adapt=1 / b_bias=0 / direct=1 / weightb=1 / open_gop=0 / weightp=2 / keyint=250 / keyint_min=23 / scenecut=15 / intra_refresh=0 / rc_lookahead=50 / rc=2pass / mbtree=1 / bitrate=2495 / ratetol=2.0 / qcomp=0.40 / qpmin=10 / qpmax=51 / qpstep=4 / cplxblur=20.0 / qblur=0.5 / ip_ratio=1.40 / aq=1:1.00

Audio
ID : 2
Format : AC-3
Format/Info : Audio Coding 3
Mode extension : CM (complete main)
Muxing mode : Header stripping
Codec ID : A_AC3
Duration : 1h 32mn
Bit rate mode : Constant
Bit rate : 448 Kbps
Channel(s) : 6 channels
Channel positions : Front: L C R, Side: L R, LFE
Sampling rate : 48.0 KHz
Bit depth : 16 bits
Compression mode : Lossy
Stream size : 296 MiB (15%)
Title : Ukrainian
Language : Ukrainian
Скріншоти







Походження: відеоряд було взято з іноземного ріпу RG HDScene та накладено українську доріжку
Особиста оцінка: 9 - давно не бачив настільки якісне кіно


 Трекер:    Зареєстрований   

Завантажити / скачати фільм українською



відео для новачків



 Зареєстрований:   2011-09-23 01:09
 Розмір:   1.89 GB 
 Оцінка фільму:   9.9/10 (Голосів: 38)
   
gagaboy 
VIP


З нами з: 22.12.10
Востаннє: 05.12.16
Повідомлень: 337

2011-09-23 11:46  
класний фільм)
Smitt011 
Свій


З нами з: 11.02.14
Востаннє: 20.11.16
Повідомлень: 85

2015-06-27 20:59  
Якісь проблеми зі звуком, то дуже гучно, то дуже тихо, на різних плеєрах. Не раджу
Drool 
VIP


З нами з: 17.04.10
Востаннє: 05.12.16
Повідомлень: 1263

2015-06-27 21:32  
Smitt011 написано:
то дуже гучно, то дуже тихо
Така доріжка на носії. Іншої ліцензійної немає. На старих дубляжах чомусь часто таке було - голос тихо, а інші звуки дуже голосно.
Ваш часовий пояс: GMT + 2 Години

Нова тема   Відповісти