Завантажити та скачати торренти українською


Франкенштейн Мері Шеллі / Mary Shelley's Frankenstein / Frankenstein (1994) 720p Ukr/Eng | Sub Eng

Нові коментарі

Нова тема   Відповісти
Автор Повідомлення
Віктор 
Відео Гуртом - субтитрування
Відео Гуртом - субтитрування


З нами з: 09.01.10
Востаннє: 11.12.16
Повідомлень: 8664

2011-09-22 22:20  
Франкенштейн Мері Шелі / Mary Shelley's Frankenstein / Frankenstein (1994) 720p Ukr/Eng | Sub Eng



«It's Alive.»


Жанр: драма, жахи, романтичний
Країна: США, Японія



Кіностудія / кінокомпанія: TriStar Pictures, Japan Satellite Broadcasting (JBS), IndieProd Company Productions
Режисер: Кенет Брана (Kenneth Branagh)
Композитор: Патрік Дойл (Patrick Doyle)
Актори: Роберт Де Ніро (Robert De Niro), Кенет Брана (Kenneth Branagh), Том Гальс (Tom Hulce), Гелена Бонем Картер (Helena Bonham Carter), Айден Квін (Aidan Quinn), Єн Гольм (Ian Holm), Річард Браєрс (Richard Briers), Джон Кліс (John Cleese) та інші.

Сюжет:
Віктор Франкенштейн не божевільний, він просто схиблений... схиблений ідеєю. Через свого друга Генрі він знайомиться з підозрілим професором Вальдманом. Відтоді він займається лише одним: ідеєю створення штучної людини. І однієї ночі експеримент вдається. Франкенштейн будить своє створіння. Та коли останньої миті він усвідомлює усе божевілля свого вчинку, стає вже запізно. Цей жах уже не спинити...
Номінації, цікаві факти

Оскар, 1995 рік
Номінації (1):
Найкращий грим

Британська академія, 1995 рік
Номінації (1):
Найкраща робота художника-постановника

Цікаві факти про фільм


• «Франкенштейн» - екранізація роману Мері Шелі «Франкенштейн, або Сучасний Прометей». Незважаючи на деякі розбіжності з ориґінальним літературним твором, це найближча до тексту кіноверсія «Франкенштейна» Шелі.
• В одній зі сцен Роберт Де Ніро мав вкусити епізодичну героїню, яку грала Фей Ріплі. Сцену зняли, але в остаточний варіант вона не увійшла.
• Одну з другорядних ролей міг зіграти Крістофер Ламберт, але незадовго до початку зйомок його замінили на іншого актора.
• Кенет Брана (режисер) наполіг на тому, щоб слово «монстр» не використовувалося в титрах фільму.
• Роберт Де Ніро спеціяльно спілкувався з людьми, які пережили важкі фізичні травми, щоб навчитися говорити також, як людина, що знаходиться в подібному стані.
• Від ролі монстра відмовився Жерар Депардьє.
• Знімальний період: жовтень 1993 - лютий 1994.
• Кошторис - $45,000,000
MediaInfo

Код:

General
Unique ID                        : 177487080913193074907834036443085723969 (0x8586C4B50707D591A42FFD161266D941)
Complete name                    : D:\HURTOM\Frankenstein (1994) [Ukr, Eng] 720p [Hurtom & HDCLUB].mkv
Format                           : Matroska
File size                        : 7.86 GiB
Duration                         : 2h 3mn
Overall bit rate                 : 9 134 Kbps
Movie name                       : Frankenstein (1994) [Ukr, Eng] 720p [Hurtom & HDCLUB]
Encoded date                     : UTC 2011-09-22 19:36:16
Writing application              : mkvmerge v4.7.0 ('Just Like You Imagined') зібрано Apr 21 2011 01:13:14
Writing library                  : libebml v1.2.0 + libmatroska v1.1.0

Video
ID                               : 1
Format                           : AVC
Format/Info                      : Advanced Video Codec
Format profile                   : [email protected]
Format settings, CABAC           : Yes
Format settings, ReFrames        : 6 frames
Codec ID                         : V_MPEG4/ISO/AVC
Duration                         : 2h 3mn
Bit rate                         : 6 114 Kbps
Width                            : 1 280 pixels
Height                           : 692 pixels
Display aspect ratio             : 1.850
Frame rate                       : 23.976 fps
Color space                      : YUV
Chroma subsampling               : 4:2:0
Bit depth                        : 8 bits
Scan type                        : Progressive
Bits/(Pixel*Frame)               : 0.288
Stream size                      : 5.10 GiB (65%)
Title                            : Frankenstein (1994) [Ukr, Eng] 720p [Hurtom & HDCLUB]
Writing library                  : core 77 r1292M e381f6d
Encoding settings                : cabac=1 / ref=6 / deblock=1:-3:-3 / analyse=0x3:0x113 / me=umh / subme=9 / psy=1 / psy_rd=1.0:0.1 / mixed_ref=1 / me_range=32 / chroma_me=1 / trellis=2 / 8x8dct=1 / cqm=0 / deadzone=21,11 / chroma_qp_offset=-3 / threads=12 / nr=0 / decimate=1 / mbaff=0 / constrained_intra=0 / bframes=6 / b_pyramid=0 / b_adapt=2 / b_bias=0 / direct=3 / wpredb=1 / keyint=250 / keyint_min=25 / scenecut=40 / rc_lookahead=50 / rc=2pass / mbtree=1 / bitrate=6114 / ratetol=1.0 / qcomp=0.60 / qpmin=10 / qpmax=51 / qpstep=4 / cplxblur=20.0 / qblur=0.5 / ip_ratio=1.40 / aq=1:0.80
Language                         : English

Audio #1
ID                               : 2
Format                           :
Format/Info                      : Digital Theater Systems
Codec ID                         : A_DTS
Duration                         : 2h 3mn
Bit rate mode                    : Constant
Bit rate                         : 1 510 Kbps
Channel(s)                       : 6 channels
Channel positions                : Front: L C R, Side: L R, LFE
Sampling rate                    : 48.0 KHz
Bit depth                        : 24 bits
Compression mode                 : Lossy
Stream size                      : 1.30 GiB (17%)
Title                            : 5.1 @ 1536 kbps - багатоголосий закадровий, Новий канал
Language                         : Ukrainian

Audio #2
ID                               : 3
Format                           :
Format/Info                      : Digital Theater Systems
Codec ID                         : A_DTS
Duration                         : 2h 3mn
Bit rate mode                    : Constant
Bit rate                         : 1 510 Kbps
Channel(s)                       : 6 channels
Channel positions                : Front: L C R, Side: L R, LFE
Sampling rate                    : 48.0 KHz
Bit depth                        : 24 bits
Compression mode                 : Lossy
Stream size                      : 1.30 GiB (17%)
Title                            : 5.1 @ 1536 kbps
Language                         : English

Text
ID                               : 4
Format                           : UTF-8
Codec ID                         : S_TEXT/UTF8
Codec ID/Info                    : UTF-8 Plain Text
Language                         : English

Menu
00:00:00.000                     : en:Chapter 01
00:07:31.785                     : en:Chapter 02
00:13:46.617                     : en:Chapter 03
00:20:19.051                     : en:Chapter 04
00:30:20.360                     : en:Chapter 05
00:35:45.101                     : en:Chapter 06
00:43:30.066                     : en:Chapter 07
00:50:27.233                     : en:Chapter 08
00:56:47.529                     : en:Chapter 09
01:03:01.152                     : en:Chapter 10
01:13:12.513                     : en:Chapter 11
01:21:36.809                     : en:Chapter 12
01:30:09.821                     : en:Chapter 13
01:37:28.968                     : en:Chapter 14
01:44:06.073                     : en:Chapter 15
01:52:59.982                     : en:Chapter 16
Всі наявні релізи

Завантажити:
720p Ukr/Eng | Sub Eng (7.86 GB) - багатоголосий закадровий Новий Канал
(1.46 GB) - багатоголосий закадровий Новий Канал

Про озвучення від Нового Каналу
Ролі озвучили: Роберт Де Ніро - Михайло Жонін
Килимок з Blu Ray
Тривалість: 02:03:10
Якість: 720р
Відео:
кодек:
розмір кадру: 1280x692
бітрейт: 6114 кб/с

Аудіо # 1:
мова: українська
переклад: багатоголосий закадровий Новий Канал
кодек: 5.1
бітрейт: 1536 кб/с

Цитата:
Доріжка отримана шляхом накладання чистих голосів на центр декодованого -HD.


Аудіо # 2:
мова: анґлійська
переклад: ориґінал
кодек: 5.1
бітрейт: 1536 кб/с

Субтитри:
мова: анґлійська
тип: проґрамні (м'які)
формат: *.srt

Скріншоти:




Джерело: &
Особиста оцінка: не дивився


Срібний реліз (на рейтинг впливає 50% завантаженого)
 Трекер:    Зареєстрований   

Завантажити / скачати фільм українською



відео для новачків



 Зареєстрований:   2011-09-22 22:20
 Розмір:   7.86 GB 
 Оцінка фільму:   7.5/10 (Голосів: 8)
   
Ваш часовий пояс: GMT + 2 Години

Нова тема   Відповісти