Завантажити та скачати торренти українською


Принц Персії: Піски часу / Prince of Persia: The Sands of Time (2010) 720p-mini

Нові коментарі

Нова тема   Відповісти
Автор Повідомлення
Drool 
VIP


З нами з: 17.04.10
Востаннє: 10.12.16
Повідомлень: 1270

2011-09-21 09:54  
Принц Персії: Піски часу / Prince of Persia: The Sands of Time (2010) 720p-mini




Жанр: пригодницький, фентезі, бойовик, мелодрама
Країна: США



Кіностудія / кінокомпанія: Walt Disney Pictures, Jerry Bruckheimer Films
Режисер: Майк Ньюелл
Актори: Джейк Джилленхол, Джемма Артертон, Бен Кінгслі, Альфред Моліна, Стів Туссен, Тобі Кеббелл, Річард Койл, Рональд Пікап, Ріс Річі, Гіслі Орн Гардарссон

Сюжет:
Головний герой цієї екранізації культової комп'ютерної гри, юний принц Дастан завжди перемагав ворогів у бою, але втратив королівство через підступного царедворця. Тепер Дастану належить викрасти з рук лиходіїв могутній магічний артефакт, здатний повернути час назад, і зробити свого власника володарем світу. Допомогти здолати ворогів Дастану допоможуть його блискучі навики володіння холодною зброєю, а також незвичайні здібності до акробатики і еквілібристики.


Тривалість: 01:55:53
Якість: 720p-mini
Відео:
кодек:
розмір кадру: 1280x536
бітрейт: 2370 кб/с

Аудіо:
мова: українська
переклад: професійний дубльований
кодек: 5.1
бітрейт: 448 кб/с
Джерело озвучення:
Звіт MediaInfo
General
Unique ID : 294610216288544794382994870904923578593 (0xDDA3DD1E8A32745B10E42AEE88CF60E1)
Complete name : /mnt/atlant/Video/Prince.Of.Persia.The.Sands.Of.Time.2010.D.Ukr.BRRip.720p.mkv
Format : Matroska
File size : 2.28 GiB
Duration : 1h 55mn
Overall bit rate : 2 817 Kbps
Movie name : Принц Персії: Піски часу / Prince Of Persia The Sands Of Time BRRip 720p (video by 3Li)
Encoded date : UTC 2011-09-09 18:38:27
Writing application : mkvmerge v4.4.0 ('Die Wiederkehr') зібрано Apr 5 2011 20:08:52
Writing library : libebml v1.0.0 + libmatroska v1.0.0

Video
ID : 1
Format : AVC
Format/Info : Advanced Video Codec
Format profile : [email protected]
Format settings, CABAC : Yes
Format settings, ReFrames : 8 frames
Muxing mode : Header stripping
Codec ID : V_MPEG4/ISO/AVC
Duration : 1h 55mn
Bit rate : 2 370 Kbps
Width : 1 280 pixels
Height : 536 pixels
Display aspect ratio : 2.35:1
Frame rate : 23.976 fps
Color space : YUV
Chroma subsampling : 4:2:0
Bit depth : 8 bits
Scan type : Progressive
Bits/(Pixel*Frame) : 0.144
Stream size : 1.87 GiB (82%)
Title : Prince Of Persia The Sands Of Time BRRip 720p (video by 3Li)
Writing library : core 98 r1649 c54c47d
Encoding settings : cabac=1 / ref=8 / deblock=1:-4:-4 / analyse=0x3:0x113 / me=umh / subme=9 / psy=1 / psy_rd=0.20:0.00 / mixed_ref=1 / me_range=32 / chroma_me=1 / trellis=2 / 8x8dct=1 / cqm=0 / deadzone=21,11 / fast_pskip=0 / chroma_qp_offset=-1 / threads=3 / sliced_threads=0 / nr=0 / decimate=0 / interlaced=0 / constrained_intra=0 / bframes=4 / b_pyramid=2 / b_adapt=2 / b_bias=0 / direct=1 / weightb=1 / weightp=2 / keyint=250 / keyint_min=25 / scenecut=40 / intra_refresh=0 / rc_lookahead=40 / rc=2pass / mbtree=1 / bitrate=2370 / ratetol=1.0 / qcomp=0.60 / qpmin=10 / qpmax=51 / qpstep=4 / cplxblur=20.0 / qblur=0.5 / ip_ratio=1.40 / aq=1:1.00

Audio
ID : 2
Format : AC-3
Format/Info : Audio Coding 3
Mode extension : CM (complete main)
Muxing mode : Header stripping
Codec ID : A_AC3
Duration : 1h 55mn
Bit rate mode : Constant
Bit rate : 448 Kbps
Channel(s) : 6 channels
Channel positions : Front: L C R, Side: L R, LFE
Sampling rate : 48.0 KHz
Bit depth : 16 bits
Compression mode : Lossy
Stream size : 371 MiB (16%)
Title : Ukrainian
Language : Ukrainian
Скріншоти






Походження: відеоряд було взято з іноземного ріпу RG 3Li та накладено українську доріжку
Особиста оцінка: 9 - давно не бачив настільки якісне кіно


 Трекер:    Зареєстрований   

Завантажити / скачати фільм українською



відео для новачків



 Зареєстрований:   2011-09-21 09:54
 Розмір:   2.28 GB 
 Оцінка фільму:   9.8/10 (Голосів: 39)
   
gagaboy 
VIP


З нами з: 22.12.10
Востаннє: 10.12.16
Повідомлень: 337

2011-09-21 13:50  
хороший фільм=)
igor1403 
Новенький


З нами з: 21.12.10
Востаннє: 10.12.16
Повідомлень: 13

2011-09-23 08:31  
Народ дайте роздачу
vitalitZU 
Свій


З нами з: 17.12.10
Востаннє: 10.12.16
Повідомлень: 65

2011-09-23 12:14  
Фільм класний. Довго ж мені прийшлось згадувати в якому фільмі бачив цього актора недавно, нарешті згадав - головний герой "Донні Дарко", гарна гра як в тому фільмі так і тут.
de_funes 
Частий відвідувач


З нами з: 12.09.11
Востаннє: 10.12.16
Повідомлень: 45

2011-09-27 00:14  
Якість просто ідеальна. Дякую
Drool 
VIP


З нами з: 17.04.10
Востаннє: 10.12.16
Повідомлень: 1270

2011-09-28 16:04  
de_funes написано:
Якість просто ідеальна. Дякую

Так, RG 3Li робить дуже якісні ріпи. Є ще дуже професійна РГ Kingdom. Якщо пощастить - намагаюсь брати відеоряд з їх ріпів.

SilentBoss 
Частий відвідувач


З нами з: 19.01.11
Востаннє: 10.12.16
Повідомлень: 35

2012-02-29 18:59  
семпл залийте пліз
Ваш часовий пояс: GMT + 2 Години

Нова тема   Відповісти