Завантажити та скачати торренти українською


Казанова / Casanova (2005) 720p Ukr/Eng | Sub Eng

Нові коментарі

Нова тема   Відповісти
Автор Повідомлення
DеLight 
Відео Гуртом - фільмокрай
Відео Гуртом - фільмокрай


З нами з: 24.08.11
Востаннє: 17.11.16
Повідомлень: 664

2011-09-20 09:54  
Казанова / Casanova (2005) 720p Ukr/Eng | Sub Eng



«Він підкорив серця багатьох жінок. Але лише одна жінка підкорила його.»

Жанр: драма, комедія, пригодницький
Країна: США



рейтинг MPAA: R - Дітям до 17 років обов'язкова присутність батьків


Кіностудія / кінокомпанія: Gondola Pictures Ltd., Power, The Mark Gordon Company, Touchstone Pictures
Режисер: Лассе Хальстром / Lasse Hallström
Актори: Хіт Леджер / Heath Ledger, Сієнна Міллер / Sienna Miller, Джеремі Айронс / Jeremy Irons, Олівер Плетт / Oliver Platt, Лена Олін / Lena Olin, Омід Джалілі / Omid Djalili, Стівен Грейф / Stephen Greif, Кен Стотт / Ken Stott, Хелен МакКрорі / Helen McCrory, Лей Лаусон / Leigh Lawson, Тім Макіннерні / Tim McInnerny, Чарлі Кокс / Charlie Cox, Наталі Дормер / Natalie Dormer, Філіп Девіс / Philip Davis, Педді Уорд / Paddy Ward

Сюжет:
Історія легендарного спокусника і героя-коханця Джакомо Казанови. Він розбивав серця тисячам жінок, але знайшлася і та єдина, яка змогла розбити серце йому - венеціанська красуня Франческа. Їй вдається нечуване: встояти перед чарами знаменитого спокусника... Джакомо доводиться застосувати весь арсенал прийомів, ризикувати своїм життям і репутацією заради її прихильності....
Приголомшливий гумор, цікаві замальовки з життя венеціанського суспільства і майже правдива історія майже справжньої любові на тлі приголомшливих італійських пейзажів.



Тривалість: 01:48:06
Якість: 720p
Відео:
кодек:
розмір кадру: 1280 x 544
бітрейт: 4 965 кб/с

Аудіо # 1:
мова: українська
переклад: багатоголосий закадровий
кодек: 5.1
бітрейт: 384 кб/с

Джерело озвучення:


Аудіо # 2:
мова: англійська
переклад: оригінал
кодек: 5.1
бітрейт: 384 кб/с

Субтитри:
мова: англійська
тип: програмні (м'які)
формат: *.srt


Інформація про озвучку

Переклад: Романа Дяченка
Літературний редактор: Валентина Левицька
Звукорежисер: Віктор Коляда
Режисер: Ольга Чернілевська
Ролі озвучили: Ольга Радчук, Тетяна Антонова, Гіт Леджер - Андрій Бурлуцький, Джеремі Айронс - Олег Лепенець

->переглянути<-

General
Unique ID : 183187058993384073406760946954431513840 (0x89D08B52EAAF0E1A9832A8130C0644F0)
Complete name : D:\Moviemaker\Casanova (2005) 720p [Ukr, Eng] [Hurtom & 0day].mkv
Format : Matroska
File size : 4.35 GiB
Duration : 1h 48mn
Overall bit rate : 5 759 Kbps
Movie name : Casanova (2005) 720p [Ukr, Eng] [Hurtom & 0day] by Dony
Encoded date : UTC 2011-09-19 13:31:37
Writing application : mkvmerge v4.8.0 ('I Got The...') зібрано May 24 2011 03:12:58
Writing library : libebml v1.2.0 + libmatroska v1.1.0

Video
ID : 1
Format : AVC
Format/Info : Advanced Video Codec
Format profile : [email protected]
Format settings, CABAC : Yes
Format settings, ReFrames : 8 frames
Codec ID : V_MPEG4/ISO/AVC
Duration : 1h 48mn
Bit rate : 4 965 Kbps
Width : 1 280 pixels
Height : 544 pixels
Display aspect ratio : 2.35:1
Frame rate : 23.976 fps
Color space : YUV
Chroma subsampling : 4:2:0
Bit depth : 8 bits
Scan type : Progressive
Bits/(Pixel*Frame) : 0.297
Stream size : 3.68 GiB (85%)
Title : Casanova (2005) 720p
Writing library : core 55 svn-655
Encoding settings : cabac=1 / ref=5 / deblock=1:-1:0 / analyse=0x3:0x133 / me=umh / subme=7 / brdo=0 / mixed_ref=1 / me_range=16 / chroma_me=1 / trellis=1 / 8x8dct=1 / cqm=2 / deadzone=21,11 / chroma_qp_offset=0 / threads=3 / nr=0 / decimate=1 / mbaff=0 / bframes=3 / b_pyramid=1 / b_adapt=1 / b_bias=0 / direct=1 / wpredb=1 / bime=1 / keyint=240 / keyint_min=24 / scenecut=40(pre) / rc=2pass / bitrate=4965 / ratetol=1.0 / rceq='blurCplx^(1-qComp)' / qcomp=0.60 / qpmin=10 / qpmax=51 / qpstep=4 / cplxblur=20.0 / qblur=0.5 / ip_ratio=1.40 / pb_ratio=1.30
Language : English

Audio #1
ID : 2
Format : AC-3
Format/Info : Audio Coding 3
Mode extension : CM (complete main)
Codec ID : A_AC3
Duration : 1h 48mn
Bit rate mode : Constant
Bit rate : 384 Kbps
Channel(s) : 6 channels
Channel positions : Front: L C R, Side: L R, LFE
Sampling rate : 48.0 KHz
Bit depth : 16 bits
Compression mode : Lossy
Stream size : 297 MiB (7%)
Title : 5.1, 384 kbps {1+1}
Language : Ukrainian

Audio #2
ID : 3
Format : AC-3
Format/Info : Audio Coding 3
Mode extension : CM (complete main)
Codec ID : A_AC3
Duration : 1h 48mn
Bit rate mode : Constant
Bit rate : 384 Kbps
Channel(s) : 6 channels
Channel positions : Front: L C R, Side: L R, LFE
Sampling rate : 48.0 KHz
Bit depth : 16 bits
Compression mode : Lossy
Stream size : 297 MiB (7%)
Title : 5.1, 384 kbps
Language : English

Text
ID : 4
Format : UTF-8
Codec ID : S_TEXT/UTF8
Codec ID/Info : UTF-8 Plain Text
Language : English
->переглянути<-












Джерело: &
Подяка Skiff за українську доріжку

Особиста оцінка: 10 - без зайвих вагань рекомендую всім!


Інші релізи:
Казанова / Casanova (2005) [1.4 GB]
Казанова / Casanova (2005) Ukr/Eng [2.13 GB]


 Трекер:    Зареєстрований   

Завантажити / скачати фільм українською



відео для новачків



 Зареєстрований:   2011-09-20 09:54
 Розмір:   4.35 GB 
 Оцінка фільму:   9.7/10 (Голосів: 14)
   
Інші релізи
   Казанова / Casanova (2005) Ukr/Eng BASTERD-94  4 / 0   2.13 GB   2011-09-09 15:46 
DеLight 
Відео Гуртом - фільмокрай
Відео Гуртом - фільмокрай


З нами з: 24.08.11
Востаннє: 17.11.16
Повідомлень: 664

2011-10-14 10:37  
Переглянув вдруге, тепер не по ТБ: і справді венеційські пейзажі заворожують - дуже красиво, у поєднанні з дуже й дуже хорошою якістю ріпа, отрумуєш справжнє задоволення. І сюжет доволі інтригуючий. Раджу переглянути!
Віктор 
Відео Гуртом - субтитрування
Відео Гуртом - субтитрування


З нами з: 09.01.10
Востаннє: 08.12.16
Повідомлень: 8663

2011-10-14 10:41  
Ще є одна українська доріжка, але не пам'ятаю в кого.)

Про озвучку в даному релізі:

Переклад: Романа Дяченка
Літературний редактор: Валентина Левицька
Звукорежисер: Віктор Коляда
Режисер: Ольга Чернілевська
Ролі озвучили: Ольга Радчук, Тетяна Антонова, Гіт Леджер - Андрій Бурлуцький, Джеремі Айронс - Олег Лепенець

DеLight 
Відео Гуртом - фільмокрай
Відео Гуртом - фільмокрай


З нами з: 24.08.11
Востаннє: 17.11.16
Повідомлень: 664

2011-10-14 10:48  
w2958l написано:
Ще є одна українська доріжка, але не пам'ятаю в кого.)
karvai0 (ICTV) щось писав в релізі Skiff-a.
Озвучка від плюсів чудова.
w2958l написано:
Про озвучку в даному релізі
Дякую, додам інфо!
ФілД 
Новенький


З нами з: 14.04.12
Востаннє: 11.04.14
Повідомлень: 18

2012-08-02 13:05  
панове! прошу роздати)
drakon87 
Відео Гуртом - фільмокрай
Відео Гуртом - фільмокрай


З нами з: 03.08.08
Востаннє: 08.12.16
Повідомлень: 1089

2014-01-30 21:47  
Щось геть завантаження не йде!
Ваш часовий пояс: GMT + 2 Години

Нова тема   Відповісти