Завантажити та скачати торренти українською


Термінатор: Спасіння прийде / Terminator Salvation (2009) AVC

Нові коментарі

Нова тема   Відповісти
Автор Повідомлення
Drool 
VIP


З нами з: 17.04.10
Востаннє: 09.12.16
Повідомлень: 1271

2011-09-19 21:14  
Термінатор: Спасіння прийде / Terminator Salvation (2009) AVC




Жанр: фантастика, бойовик, трилер, драма
Країна: США, Германія, Великобританія, Італія



Кіностудія / кінокомпанія: The Halcyon Company, IMF Internationale Medien und Film GmbH & Co. Produktions KG, Intermedia Films, Lin Pictures, T Asset Acquisition Company, Wonderland Sound and Vision
Режисер: Джозеф МакДжинті Найкол (МакДжи)
Актори: Крістіан Бейл, Сем Уортінґтон, Мун Бладґуд, Хелена Бонем Картер, Антон Єльчін, Джадагрейс, Брайс Даллас Ховард, Коммон, Джейн Александер, Майкл Айронсайд

Сюжет:
2018 рік від різдва Христового. Джон Коннор — людина, чия доля — очолити Опір електронному мозку Скайнет і армії Термінаторів. Але в майбутнє, з вірою в яке він виріс, вклинюється таємничий Маркус Райт: незнайомець, чиї останні спогади малюють камеру смертників.

Коннор повинен зрозуміти, хто такий Маркус — посланник майбутнього або він просто врятувався з минулого? І на тлі підготовки Скайнетом вирішального удару, Коннор і Райт відправляються в подорож, яка приводить їх в саму серцевину операційної системи, що збунтувалася, де відкривається жахлива таємниця, що криється за потенційним знищенням людства.


Тривалість: 01:54:46
Якість: AVC
Відео:
кодек:
розмір кадру: 1200x500
бітрейт: 3000 кб/с

Аудіо:
мова: українська
переклад: професійний дубльований
кодек: 5.1
бітрейт: 384 кб/с

Джерело озвучення:
Звіт MediaInfo
General
Unique ID : 69649387043914183718616249565112314325 (0x3465FBE82F4FD80C40AB87750E5A29D5)
Complete name : /mnt/disk_d/Video/Films/Terminator.Salvation.2009.D.Ukr....mkv
Format : Matroska
File size : 2.71 GiB
Duration : 1h 54mn
Overall bit rate : 3 384 Kbps
Movie name : Термінатор 4: Спасіння прийде / Terminator Salvation (2009) AVC
Encoded date : UTC 2011-08-16 22:50:23
Writing application : mkvmerge v4.4.0 ('Die Wiederkehr') зібрано Apr 5 2011 20:08:52
Writing library : libebml v1.0.0 + libmatroska v1.0.0

Video
ID : 1
Format : AVC
Format/Info : Advanced Video Codec
Format profile : [email protected]
Format settings, CABAC : Yes
Format settings, ReFrames : 13 frames
Muxing mode : Header stripping
Codec ID : V_MPEG4/ISO/AVC
Duration : 1h 54mn
Bit rate : 3 000 Kbps
Width : 1 200 pixels
Height : 500 pixels
Display aspect ratio : 2.40:1
Frame rate : 23.976 fps
Color space : YUV
Chroma subsampling : 4:2:0
Bit depth : 8 bits
Scan type : Progressive
Bits/(Pixel*Frame) : 0.209
Stream size : 2.35 GiB (87%)
Title : Terminator Salvation (2009) AVC
Writing library : core 80 r1376 3feaec2
Encoding settings : cabac=1 / ref=13 / deblock=1:-2:-1 / analyse=0x3:0x133 / me=umh / subme=10 / psy=1 / psy_rd=1.0:0.2 / mixed_ref=1 / me_range=32 / chroma_me=1 / trellis=2 / 8x8dct=1 / cqm=0 / deadzone=21,11 / fast_pskip=0 / chroma_qp_offset=-3 / threads=3 / sliced_threads=0 / nr=0 / decimate=0 / mbaff=0 / constrained_intra=0 / bframes=12 / b_pyramid=2 / b_adapt=2 / b_bias=0 / direct=3 / wpredb=1 / wpredp=2 / keyint=250 / keyint_min=25 / scenecut=40 / rc_lookahead=60 / rc=2pass / mbtree=1 / bitrate=3000 / ratetol=1.0 / qcomp=0.65 / qpmin=10 / qpmax=51 / qpstep=4 / cplxblur=20.0 / qblur=0.5 / ip_ratio=1.40 / aq=1:1.00

Audio
ID : 2
Format : AC-3
Format/Info : Audio Coding 3
Mode extension : CM (complete main)
Muxing mode : Header stripping
Codec ID : A_AC3
Duration : 1h 54mn
Bit rate mode : Constant
Bit rate : 384 Kbps
Channel(s) : 6 channels
Channel positions : Front: L C R, Side: L R, LFE
Sampling rate : 48.0 KHz
Bit depth : 16 bits
Compression mode : Lossy
Stream size : 315 MiB (11%)
Title : Ukrainian
Language : Ukrainian
Скріншоти

Джерело:
Особиста оцінка: 9 - давно не бачив настільки якісне кіно


 Трекер:    Зареєстрований   

Завантажити / скачати фільм українською



відео для новачків



 Зареєстрований:   2011-09-19 21:14
 Розмір:   2.71 GB 
 Оцінка фільму:   9.9/10 (Голосів: 18)
   
stepan-himka 
Свій


З нами з: 24.03.10
Востаннє: 24.11.16
Повідомлень: 139

2011-09-19 22:58  
Давно хотів побачити в класній якості! Дякую!
gagaboy 
VIP


З нами з: 22.12.10
Востаннє: 08.12.16
Повідомлень: 337

2011-09-20 12:13  
дякую
sergiysergiy 
Частий відвідувач


З нами з: 17.04.10
Востаннє: 06.12.16
Повідомлень: 30

2011-09-20 14:46  
КМ-плеєр не відкриває! Чим можна відкрити?
Релізеру подяка!

Drool 
VIP


З нами з: 17.04.10
Востаннє: 09.12.16
Повідомлень: 1271

2011-09-21 01:00  
sergiysergiy написано:
КМ-плеєр не відкриває! Чим можна відкрити?

KMPlayer, SMPlayer, VLC - ці програвачі містять кодеки в собі і не використовують системних. Встановіть останній комплект K-Lice Codecs та відкривайте будь-яким програвачем, який використовує системні кодеки.

P.S. В мене в лінуксі це відео просто відкривається...

MrRyanCooper 
VIP


З нами з: 23.08.12
Востаннє: 08.12.16
Повідомлень: 282

2016-02-13 17:51  
Я так розумію Шварц в усіх частинах, але не в цій.
drymmer 
Новенький


З нами з: 20.08.12
Востаннє: 08.12.16
Повідомлень: 3

2016-02-14 14:43  
дякую , завжди хотів подивитися в хорошій якості.
jaroslove 
Новенький


З нами з: 02.09.11
Востаннє: 06.12.16
Повідомлень: 11

2016-02-14 21:42  
MrRyanCooper написано:
Я так розумію Шварц в усіх частинах, але не в цій.


Помиляєтесь, в самому кінці стрічки Шварц таки фігурує Wink (1)

Ваш часовий пояс: GMT + 2 Години

Нова тема   Відповісти