Завантажити та скачати торренти українською


Доки не склеїв ласти / The Bucket List (2007) 720p Ukr | Sub Eng

Нові коментарі

Нова тема   Відповісти
Автор Повідомлення
DеLight 
Відео Гуртом - фільмокрай
Відео Гуртом - фільмокрай


З нами з: 24.08.11
Востаннє: 17.11.16
Повідомлень: 664

2011-09-14 20:28  
Доки не склеїв ласти / The Bucket List (2007) 720p Ukr | Sub Eng


«Відірвися наостанок»

Жанр: драма, комедія, пригоди
Країна: США



Кіностудія / кінокомпанія: Storyline Entertainment, Two Ton Films, Warner Bros. Pictures, Zadan / Meron Productions
Режисер: Роб Райнер / Rob Reiner
Актори: Джек Ніколсон / Jack Nicholson, Морган Фріман / Morgan Freeman, Шон Хейс / Sean Hayes, Беверлі Тодд / Beverly Todd, Роб Морроу / Rob Morrow, Альфонсо Фріман / Alfonso Freeman, Ровена Кінг / Rowena King, Annton Беррі мол. / Annton Berry Jr., Верда Бріджес / Verda Bridges, Дестіні Браунрідж / Destiny Brownridge, Брайан Коупленд / Brian Copeland, Іен Ентоні Дейл / Ian Anthony Dale, Дженніфер Дефранціско / Jennifer Defrancisco, Ангела Гарднер / Angela Gardner, Ноель Гуліємі / Noel Gugliemi

Сюжет:
Саме так вирішили два хворих на рак сусіда по лікарняній палаті, коли почули свій вирок. Один з них запальний мільярдер, а другий ерудований автомеханік. Вони складають список справ, які необхідно зробити перш, ніж вони склеють ласти, і відправляються в кругосвітню подорож, подорож всього свого життя.
Стрибки з парашутом? Подивимося. Гонки на раритетних автомобілях? Зроблено. Подивитися на піраміди? Дуже добре. Відкрити радість життя перш, ніж стане занадто пізно? Точно!


Тривалість: 01:37:04
Якість: 720p

Відео:
кодек:
розмір кадру: 1280 х 720
бітрейт: 5 806 кб/с

Аудіо:
мова: українська
переклад: багатоголосий закадровий
кодек: 5.1
бітрейт: 448 кб/с

Звук записано з телеканалу:


Субтитри:
мова: англійська
тип: програмні (м'які)
формат: *.srt


->переглянути<-
;-]
General
Unique ID : 171129075617276752043197721311703019913 (0x80BE42D8046C605681996E3ED4613189)
Complete name : D:\Torrents\The Bucket List (2007) 720p [Ukr, sub Eng] [Hurtom].mkv
Format : Matroska
File size : 4.24 GiB
Duration : 1h 37mn
Overall bit rate : 6 256 Kbps
Movie name : The Bucket List (2007) 720p [Ukr, sub Eng] [Hurtom] by Dony
Encoded date : UTC 2011-09-14 16:47:05
Writing application : mkvmerge v4.8.0 ('I Got The...') зібрано May 24 2011 03:12:58
Writing library : libebml v1.2.0 + libmatroska v1.1.0

Video
ID : 1
Format : AVC
Format/Info : Advanced Video Codec
Format profile : [email protected]
Format settings, CABAC : Yes
Format settings, ReFrames : 5 frames
Codec ID : V_MPEG4/ISO/AVC
Duration : 1h 37mn
Bit rate : 5 806 Kbps
Width : 1 280 pixels
Height : 720 pixels
Display aspect ratio : 16:9
Frame rate : 23.976 fps
Color space : YUV
Chroma subsampling : 4:2:0
Bit depth : 8 bits
Scan type : Progressive
Bits/(Pixel*Frame) : 0.263
Stream size : 3.85 GiB (91%)
Title : The Bucket List (2007) 720p
Writing library : core 59 r859 ce13bb6
Encoding settings : cabac=1 / ref=5 / deblock=1:0:0 / analyse=0x3:0x113 / me=umh / subme=7 / brdo=1 / mixed_ref=1 / me_range=16 / chroma_me=1 / trellis=1 / 8x8dct=1 / cqm=0 / deadzone=21,11 / chroma_qp_offset=0 / threads=6 / nr=0 / decimate=1 / mbaff=0 / bframes=3 / b_pyramid=1 / b_adapt=1 / b_bias=0 / direct=1 / wpredb=1 / bime=1 / keyint=250 / keyint_min=25 / scenecut=40(pre) / rc=2pass / bitrate=5806 / ratetol=1.0 / rceq='blurCplx^(1-qComp)' / qcomp=1.00 / qpmin=10 / qpmax=51 / qpstep=4 / cplxblur=20.0 / qblur=0.5 / ip_ratio=1.40 / pb_ratio=1.30 / aq=2:1.00
Language : English

Audio
ID : 2
Format : AC-3
Format/Info : Audio Coding 3
Mode extension : CM (complete main)
Codec ID : A_AC3
Duration : 1h 37mn
Bit rate mode : Constant
Bit rate : 448 Kbps
Channel(s) : 6 channels
Channel positions : Front: L C R, Side: L R, LFE
Sampling rate : 48.0 KHz
Bit depth : 16 bits
Compression mode : Lossy
Stream size : 311 MiB (7%)
Title : 5.1, 448 kbps {Інтер}
Language : Ukrainian

Text
ID : 3
Format : UTF-8
Codec ID : S_TEXT/UTF8
Codec ID/Info : UTF-8 Plain Text
Title : SDH
Language : English




->переглянути<-















Джерело: &
Подяка Romario_O за українську доріжку
Особиста оціна: 9 - давно не бачив настільки якісне кіно


 Трекер:    Зареєстрований   

Завантажити / скачати фільм українською



відео для новачків



 Зареєстрований:   2011-09-14 20:28
 Розмір:   4.24 GB 
 Оцінка фільму:   9.7/10 (Голосів: 45)
   
Віктор 
Відео Гуртом - субтитрування
Відео Гуртом - субтитрування


З нами з: 09.01.10
Востаннє: 08.12.16
Повідомлень: 8663

2011-09-14 21:07  
Ех, шкода що без українських субтитрів і оригінальної доріжки.) Дякую за посилання на фільмографії.
DеLight 
Відео Гуртом - фільмокрай
Відео Гуртом - фільмокрай


З нами з: 24.08.11
Востаннє: 17.11.16
Повідомлень: 664

2011-09-14 21:21  
w2958l

Субтитри були тільки на HDClub-і - не було сенсу вантажити бо в мене інший ріп, а доріжки по 384 кб/с всерівно не підходили під DVD5, а додавати окремо чи переганяти в 224 - я не фанат такого... Wink (1)

Віктор 
Відео Гуртом - субтитрування
Відео Гуртом - субтитрування


З нами з: 09.01.10
Востаннє: 08.12.16
Повідомлень: 8663

2011-09-14 22:04  
Dоnу написано:
Субтитри були тільки на HDClub-і


Ну не тільки.

Dоnу написано:
переганяти в 224 - я не фанат такого

Я теж не фанат.

Де там модератори? Вже з десяток релізів в цьому розділі і ніхто не перевіряє, не порядок.)

dom237 
Новенький


З нами з: 12.03.11
Востаннє: 07.12.16
Повідомлень: 9

2011-09-20 16:56  
Просто чудово!
Vasilechek 
Новенький


З нами з: 17.02.11
Востаннє: 19.11.16
Повідомлень: 1

2011-09-28 12:08  
Фільм просто суперовий! Раджу всім подивитися!
.::Oleh::. 
Новенький


З нами з: 20.12.11
Востаннє: 26.11.16
Повідомлень: 1

2014-02-09 17:02  
нема швидкості !!!
kino. 
Модератор відео


З нами з: 27.06.10
Востаннє: 08.12.16
Повідомлень: 2900

2014-02-09 17:04  
.::Oleh::. написано:
нема швидкості !!!


Ваш рейтинг опустився нижче 0,15. Коли він підніметься до цього рівня, ви знову зможете завантажувати торрент-файли. Почитайте ЦЕ

Косячок справжній 
VIP


З нами з: 29.02.12
Востаннє: 08.12.16
Повідомлень: 658

2015-04-25 22:08  
За винятком кількох справді смішних моментів, кіно посереднє, як на мене звісно.
morfst 
Новенький


З нами з: 31.05.14
Востаннє: 07.12.16
Повідомлень: 19

2015-05-09 11:40  
Фільм супер , пару речей внесу до свого списку.
Ваш часовий пояс: GMT + 2 Години

Нова тема   Відповісти