Завантажити та скачати торренти українською


Зворотна тяга / Backdraft (1991) 720p Ukr/Eng | Sub Eng

Нові коментарі

Нова тема   Відповісти
Автор Повідомлення
Віктор 
Відео Гуртом - субтитрування
Відео Гуртом - субтитрування


З нами з: 09.01.10
Востаннє: 09.12.16
Повідомлень: 8663

2011-09-14 10:15  
Зворотна тяга / Backdraft (1991) 720p Ukr/Eng | Sub Eng



«In that instant it can create a hero... or cover a secret..»

Українізований постер


Жанр: бойовик, трилер, драма, кримінал, детектив
Країна: США



Кіностудія / кінокомпанія: Imagine Films Entertainment, Trilogy Entertainment Group
Режисер: Рон Говард (Ron Howard)
Композитор: Ганс Ціммер (Hans Zimmer)
Актори: Курт Расселл (Kurt Russell), Вілльям Болдвін (William Baldwin), Роберт Де Ніро (Robert De Niro), Дональд Сазерленд (Donald Sutherland), Дженніфер Джейсон Лейґ (Jennifer Jason Leigh), Скот Ґлен (Scott Glenn), Ребекка Де Морней (Rebecca De Mornay), Джейсон Ґедрік (Jason Gedrick) та інші.

Сюжет:
"Зворотна тяга" - це термін професійних пожежників. У результаті "зворотної тяги" гине батько Браяна і Стівена. На відміну від Стівена Браян відмовляється від кар'єри пожежника, але доля розпоряджається так, що брати опиняються в одному загоні. Стосунки між ними натягнуті. Незабаром молодший залишає команду, щоб разом зі слідчим спіймати маніяка-палія....
Номінації

Оскар, 1992 рік
Номінації (3):
Найкращий звук
Найкращий монтаж звуку
Найкращі візуальні ефекти

Премія каналу «MTV», 1992 рік
Номінації (2):
Найкраща екшн-сцена
Найкращий фільм

Британська академія, 1992 рік
Номінації (1):
Найкращі візуальні ефекти
MediaInfo

Код:
General
Unique ID                        : 236396187072990014010502555311883346049 (0xB1D83FE200CC008C8B61E3A61172E081)
Complete name                    : D:\HURTOM\Backdraft (1991) [Ukr, Eng] 720p [Hurtom].mkv
Format                           : Matroska
File size                        : 7.54 GiB
Duration                         : 2h 17mn
Overall bit rate                 : 7 862 Kbps
Movie name                       : Backdraft (1991) [Ukr, Eng] 720p [Hurtom]
Encoded date                     : UTC 2011-09-14 07:45:26
Writing application              : mkvmerge v4.7.0 ('Just Like You Imagined') зібрано Apr 21 2011 01:13:14
Writing library                  : libebml v1.2.0 + libmatroska v1.1.0

Video
ID                               : 1
Format                           : AVC
Format/Info                      : Advanced Video Codec
Format profile                   : [email protected]
Format settings, CABAC           : Yes
Format settings, ReFrames        : 11 frames
Codec ID                         : V_MPEG4/ISO/AVC
Duration                         : 2h 17mn
Bit rate mode                    : Variable
Bit rate                         : 5 555 Kbps
Maximum bit rate                 : 50.0 Mbps
Width                            : 1 280 pixels
Height                           : 544 pixels
Display aspect ratio             : 2.35:1
Frame rate                       : 23.976 fps
Color space                      : YUV
Chroma subsampling               : 4:2:0
Bit depth                        : 8 bits
Scan type                        : Progressive
Bits/(Pixel*Frame)               : 0.333
Stream size                      : 5.33 GiB (71%)
Title                            : Backdraft (1991) [Ukr, Eng] 720p [Hurtom]
Writing library                  : core 116 r2019 9cc407d
Encoding settings                : cabac=1 / ref=11 / deblock=1:-2:-2 / analyse=0x3:0x113 / me=umh / subme=10 / psy=1 / psy_rd=0.90:0.05 / mixed_ref=1 / me_range=32 / chroma_me=1 / trellis=2 / 8x8dct=1 / cqm=0 / deadzone=21,11 / fast_pskip=0 / chroma_qp_offset=-3 / threads=9 / sliced_threads=0 / nr=0 / decimate=1 / interlaced=0 / bluray_compat=0 / constrained_intra=0 / bframes=12 / b_pyramid=2 / b_adapt=2 / b_bias=0 / direct=1 / weightb=1 / open_gop=0 / weightp=2 / keyint=250 / keyint_min=23 / scenecut=40 / intra_refresh=0 / rc_lookahead=40 / rc=crf / mbtree=0 / crf=18.0 / qcomp=0.70 / qpmin=10 / qpmax=51 / qpstep=4 / vbv_maxrate=50000 / vbv_bufsize=62500 / crf_max=0.0 / nal_hrd=vbr / ip_ratio=1.40 / pb_ratio=1.30 / aq=1:0.90
Language                         : English

Audio #1
ID                               : 2
Format                           : AC-3
Format/Info                      : Audio Coding 3
Mode extension                   : CM (complete main)
Codec ID                         : A_AC3
Duration                         : 2h 17mn
Bit rate mode                    : Constant
Bit rate                         : 448 Kbps
Channel(s)                       : 6 channels
Channel positions                : Front: L C R, Side: L R, LFE
Sampling rate                    : 48.0 KHz
Bit depth                        : 16 bits
Compression mode                 : Lossy
Stream size                      : 440 MiB (6%)
Title                            : 5.1 448 kbps - двоголосий закдровий | Студія 1+1
Language                         : Ukrainian

Audio #2
ID                               : 3
Format                           : AC-3
Format/Info                      : Audio Coding 3
Mode extension                   : CM (complete main)
Codec ID                         : A_AC3
Duration                         : 2h 17mn
Bit rate mode                    : Constant
Bit rate                         : 192 Kbps
Channel(s)                       : 2 channels
Channel positions                : Front: L R
Sampling rate                    : 48.0 KHz
Bit depth                        : 16 bits
Compression mode                 : Lossy
Stream size                      : 189 MiB (2%)
Title                            : 2.0 192 kbps - двоголосий закдровий | Студія 1+1
Language                         : Ukrainian

Audio #3
ID                               : 4
Format                           :
Format/Info                      : Digital Theater Systems
Codec ID                         : A_DTS
Duration                         : 2h 17mn
Bit rate mode                    : Constant
Bit rate                         : 1 510 Kbps
Channel(s)                       : 6 channels
Channel positions                : Front: L C R, Side: L R, LFE
Sampling rate                    : 48.0 KHz
Bit depth                        : 24 bits
Compression mode                 : Lossy
Delay relative to video          : 11ms
Stream size                      : 1.45 GiB (19%)
Title                            : English 5.1 1536 kbps
Language                         : English

Text
ID                               : 5
Format                           : UTF-8
Codec ID                         : S_TEXT/UTF8
Codec ID/Info                    : UTF-8 Plain Text
Language                         : English

Menu
00:00:00.000                     : en:Main Titel: Chicago 1971
00:05:50.683                     : en:20 years later
00:15:46.654                     : en:The brother's McCaffrey
00:18:25.813                     : en:The first day
00:39:06.093                     : en:The retirement party
00:48:03.714                     : en:The probie's life
00:51:57.072                     : en:Time to move on
00:59:26.563                     : en:Pest control
01:03:27.845                     : en:A new kind of arson
01:14:43.228                     : en:The next victim
01:24:18.386                     : en:The essence of fire
01:38:28.652                     : en:The expert's opinion
01:42:03.158                     : en:The path to a killer
01:51:51.371                     : en:Dancing with the beast
02:03:19.558                     : en:The fireman's farewell
02:07:11.081                     : en:Back on the line (End titles)
Всі наявні релізи

Завантажити:
720p Ukr/Eng | Sub Ukr/Eng (7.54 GB) - двоголосий закадровий Студія 1+1
Ukr/Eng | Sub Eng (2.9 GB) - двоголосий закадровий Студія 1+1

Ролі озвучили: Олександр Ігнатуша
Тривалість: 02:17:17
Якість: 720р (shartm)
Відео:
кодек:
розмір кадру: 1280x544
бітрейт: 5555 кб/с

Аудіо # 1:
мова: українська
переклад: двоголосий закадровий Студія 1+1 | усі чоловічі ролі озвучив Олександр Ігнатуша
кодек: 5.1
бітрейт: 448 кб/с

Аудіо # 2:
мова: українська
переклад: двоголосий закадровий Студія 1+1 | усі чоловічі ролі озвучив Олександр Ігнатуша
кодек: 2.0
бітрейт: 192 кб/с

Аудіо # 3:
мова: англійська
переклад: ориґінал
кодек: 5.1
бітрейт: 1510 кб/с

Субтитри:
мова: англійська
тип: програмні (м'які)
формат: *.srt

Скріншоти:





За створення доріжки 5.1 подяка Lan-y

Подяка восвобода за запис звуку та створення доріжки 2.0.


Джерело: &
Особиста оцінка: 10 - без зайвих вагань рекомендую всім!


Срібний реліз (на рейтинг впливає 50% завантаженого)
 Трекер:    Зареєстрований   

Завантажити / скачати фільм українською



відео для новачків



 Зареєстрований:   2011-09-14 10:15
 Розмір:   7.54 GB 
 Оцінка фільму:   9.3/10 (Голосів: 13)
   
Інші релізи
   Зворотна тяга / Backdraft (1991) 1080p Ukr/Eng фізик Ужну  0 / 0   13.73 GB   2015-01-27 15:48 
   Зворотна тяга / Backdraft (1991) 2хUkr/Eng | Sub Eng MutuLI  5 / 0   3.09 GB   2014-04-23 20:22 
   Зворотна тяга / Backdraft (1991) Кіт Баюн  1 / 0   1.51 GB   2009-02-01 12:05 
Ваш часовий пояс: GMT + 2 Години

Нова тема   Відповісти