Завантажити та скачати торренти українською


Збройний барон / Lord of War (2005) 720p Ukr/Eng | Sub Eng

Нові коментарі

Нова тема   Відповісти
Автор Повідомлення
Віктор 
Відео Гуртом - субтитрування
Відео Гуртом - субтитрування


З нами з: 09.01.10
Востаннє: 09.12.16
Повідомлень: 8663

2011-09-03 13:14  
Збройний барон / Lord of War (2005) 720p Ukr/Eng | Sub Eng



«The first and most important rule of gun-running is: never get shot with your own merchandise.»


Жанр: кримінальний, драма
Країна: США, Франція



Кіностудія / кінокомпанія: Entertainment Manufacturing Company
Режисер: Ендрю Ніккол (Andrew Niccol)
Композитор: Антоніо Пінто (Antonio Pinto)
Актори: Ніколас Кейдж (Nicolas Cage), Джаред Лето (Jared Leto), Бріджит Монеген (Bridget Moynahan), Ітан Гоук (Ethan Hawke), Єн Гольм (Ian Holm), Дональд Сазерленд (Donald Sutherland) та інші.

Сюжет:
Юрій Орлов – простий одеський хлопець, чиї батьки колись видали себе за євреїв, щоб виїхати з Радянського Союзу в Америку. У Штатах родина Орлових жила на Брайтон-біч більш ніж скромно. Орлов-тато все більше відчував себе євреєм, на превелике невдоволення Орлової-мами, брат Віталій працював кухарем у ресторані батька, а сам Юрій намагався знайти себе в житті, аж доки не виявив справжнього покликання: торгувати зброєю.
І він почав власний бізнес, продаючи все, що міг – від автоматів Калашникова до бойових вертольотів, пройшовши шлях від дрібного торговця зброєю до професійного збройного барона.
Цікаві факти

Для зйомок сцени зі складом автоматів були закуплені реальні автомати Калашникова, тому що вони були дешевшими ніж муляжі.
Зйомки відбувалися в ПАР, Чехії та Нью-Йорку.
Жодна американська студія не захотіла зв'язуватися з цим проектом. Фільм фінансували іноземні компанії.
Танки в картині справжні. Колись вони належали Чеській армії, а зараз були призначені для продажу в іншу країну. Кіношникам довелося про всяк випадок попередити НАТО, щоб там, зафіксувавши з супутників велике скупчення техніки, не вирішили, ніби розпочалася війна.
Ендрю Ніккол запевняв, що консультантами у фільмі виступили справжні продавці зброї.
Дядя Юрія Орлова - Дмитро Волков - у фільмі був представлений як генерал-майор, але на погонах чітко видно дві зірки генерал-лейтенанта.
Бюджет - $42,000,000
MediaInfo

Код:

General
Unique ID                        : 200039453459239517298783403808315627148 (0x967E32855F529D63B91934EEE8DF568C)
Format                           : Matroska
File size                        : 4.62 GiB
Duration                         : 2h 1mn
Overall bit rate                 : 5 434 Kbps
Encoded date                     : UTC 2011-09-03 10:28:19
Writing application              : mkvmerge v4.7.0 ('Just Like You Imagined') зібрано Apr 21 2011 01:13:14
Writing library                  : libebml v1.2.0 + libmatroska v1.1.0

Video
ID                               : 1
Format                           : AVC
Format/Info                      : Advanced Video Codec
Format profile                   : [email protected]
Format settings, CABAC           : Yes
Format settings, ReFrames        : 11 frames
Codec ID                         : V_MPEG4/ISO/AVC
Duration                         : 2h 1mn
Bit rate                         : 4 110 Kbps
Width                            : 1 280 pixels
Height                           : 532 pixels
Display aspect ratio             : 2.40:1
Frame rate                       : 23.976 fps
Color space                      : YUV
Chroma subsampling               : 4:2:0
Bit depth                        : 8 bits
Scan type                        : Progressive
Bits/(Pixel*Frame)               : 0.252
Stream size                      : 3.49 GiB (76%)
Writing library                  : core 108 r1790 8eaf8a6
Encoding settings                : cabac=1 / ref=11 / deblock=1:-3:-2 / analyse=0x3:0x133 / me=umh / subme=10 / psy=1 / psy_rd=1.00:0.10 / mixed_ref=1 / me_range=32 / chroma_me=0 / trellis=2 / 8x8dct=1 / cqm=0 / deadzone=21,11 / fast_pskip=0 / chroma_qp_offset=-3 / threads=3 / sliced_threads=0 / nr=0 / decimate=0 / interlaced=0 / constrained_intra=0 / bframes=10 / b_pyramid=2 / b_adapt=2 / b_bias=0 / direct=3 / weightb=1 / open_gop=0 / weightp=2 / keyint=250 / keyint_min=23 / scenecut=40 / intra_refresh=0 / rc_lookahead=40 / rc=crf / mbtree=0 / crf=19.7 / qcomp=0.65 / qpmin=10 / qpmax=51 / qpstep=4 / vbv_maxrate=25000 / vbv_bufsize=31250 / crf_max=0.0 / ip_ratio=1.40 / pb_ratio=1.30 / aq=1:0.90 / nal_hrd=none
Language                         : English

Audio #1
ID                               : 2
Format                           : AC-3
Format/Info                      : Audio Coding 3
Mode extension                   : CM (complete main)
Codec ID                         : A_AC3
Duration                         : 2h 1mn
Bit rate mode                    : Constant
Bit rate                         : 384 Kbps
Channel(s)                       : 6 channels
Channel positions                : Front: L C R, Side: L R, LFE
Sampling rate                    : 48.0 KHz
Bit depth                        : 16 bits
Compression mode                 : Lossy
Stream size                      : 334 MiB (7%)
Title                            : 5.1 @ 384 kbps  - Двоголосий закадровий | Студія ТВ+ на замовлення ICTV
Language                         : Ukrainian

Audio #2
ID                               : 3
Format                           : AC-3
Format/Info                      : Audio Coding 3
Mode extension                   : CM (complete main)
Codec ID                         : A_AC3
Duration                         : 2h 1mn
Bit rate mode                    : Constant
Bit rate                         : 192 Kbps
Channel(s)                       : 2 channels
Channel positions                : Front: L R
Sampling rate                    : 48.0 KHz
Bit depth                        : 16 bits
Compression mode                 : Lossy
Stream size                      : 167 MiB (4%)
Title                            : 2.0 @ 192 kbps  - Двоголосий закадровий | Студія ТВ+ на замовлення ICTV
Language                         : Ukrainian

Audio #3
ID                               : 4
Format                           : AC-3
Format/Info                      : Audio Coding 3
Mode extension                   : CM (complete main)
Codec ID                         : A_AC3
Duration                         : 2h 1mn
Bit rate mode                    : Constant
Bit rate                         : 640 Kbps
Channel(s)                       : 6 channels
Channel positions                : Front: L C R, Side: L R, LFE
Sampling rate                    : 48.0 KHz
Bit depth                        : 16 bits
Compression mode                 : Lossy
Stream size                      : 557 MiB (12%)
Title                            : 5.1 @ 640 kbps
Language                         : English

Text
ID                               : 5
Format                           : UTF-8
Codec ID                         : S_TEXT/UTF8
Codec ID/Info                    : UTF-8 Plain Text
Title                            : Англійські
Language                         : English

Menu
00:00:00.000                     : en:Chapter 1
00:09:16.847                     : en:Chapter 2
00:18:29.691                     : en:Chapter 3
00:28:53.523                     : en:Chapter 4
00:39:34.538                     : en:Chapter 5
00:52:09.918                     : en:Chapter 6
01:00:29.792                     : en:Chapter 7
01:08:51.377                     : en:Chapter 8
01:18:14.731                     : en:Chapter 9
01:30:43.604                     : en:Chapter 10
01:40:02.871                     : en:Chapter 11
01:56:00.203                     : en:Chapter 12
02:01:42.545                     : en:Chapter 13
Всі наявні релізи

Завантажити:
1080p Ukr/Eng/Rus (9.34 GB) - двоголосий закадровий Студія "ТВ+" на замовлення телекомпанії ICTV
720p Ukr/Eng | Sub Eng (4.62 GB) - двоголосий закадровий Студія "ТВ+" на замовлення телекомпанії ICTV
(2 GB) - двоголосий закадровий Студія "ТВ+" на замовлення телекомпанії ICTV
Тривалість: 02:01:43
Якість: 720р
Відео:
кодек:
розмір кадру: 1280 х 532
бітрейт: 4110 кб/с

Аудіо # 1:
мова: українська
переклад: двоголосий закадровий Студія "ТВ+"
кодек: 5.1
бітрейт: 448 кб/с

Аудіо # 2:
мова: українська
переклад: двоголосий закадровий Студія "ТВ+"
кодек: 2.0
бітрейт: 192 кб/с

Аудіо # 3:
мова: англійська
переклад: оригінал
кодек: 5.1
бітрейт: 640 кб/с

Субтитри:
мова: англійська
тип: програмні (м'які)
формат: *.srt

Скріншоти:





За створення доріжки 5.1 подяка Lan-y


Джерело:
Особиста оцінка: не дивився


 Трекер:    Зареєстрований   

Завантажити / скачати фільм українською



відео для новачків



 Зареєстрований:   2011-09-03 13:14
 Розмір:   4.62 GB 
 Оцінка фільму:   9.7/10 (Голосів: 35)
   
Інші релізи
   Збройний барон / Lord of War (2005) Ukr/Eng AngryBirdsUA  12 / 0   2.18 GB   2014-03-23 15:19 
   Збройний барон / Lord of War (2005) AVC Ukr/Eng AngryBirdsUA  3 / 0   2.45 GB   2011-11-05 19:52 
   Збройний барон / Lord of War (2005) 1080p Rus/Ukr/Eng | Sub Multi Beffis  2 / 0   9.34 GB   2010-03-03 19:23 
Віктор 
Відео Гуртом - субтитрування
Відео Гуртом - субтитрування


З нами з: 09.01.10
Востаннє: 09.12.16
Повідомлень: 8663

2011-09-03 13:54  
Стосовно озвучки, протягом усього фільму лише два голоси (схоже що Андрій Самінін, хто знає точно повідомте), але в початкових титрах інший голос, тому може виникнути враження що тут багатоголоска Happy

І ще одне на торрент.нет.юа є DVD5 і написано UA Team можливо комусь відомо, що саме там від UA Team , бо я думаю що укр. доріжка, але цікавить звідки вона, запис з ТБ чи отримана іншим шляхом.

SonicZero 
Новенький


З нами з: 01.06.10
Востаннє: 02.08.15
Повідомлень: 6

2011-09-04 16:27  
Цікавий фільм, СПАСИБІ за роздачу.
Віктор 
Відео Гуртом - субтитрування
Відео Гуртом - субтитрування


З нами з: 09.01.10
Востаннє: 09.12.16
Повідомлень: 8663

2011-09-04 17:20  
SonicZero написано:
Цікавий фільм, СПАСИБІ за роздачу.


Будь ласка.

Ваш часовий пояс: GMT + 2 Години

Нова тема   Відповісти