Завантажити та скачати торренти українською


Гарольд і Кумар ідуть у відрив / Harold & Kumar Go to White Castle (2004) [UNRATED] 720p 2xUkr/Eng | Sub Eng

Нові коментарі

Нова тема   Відповісти
Автор Повідомлення
Віктор 
Відео Гуртом - субтитрування
Відео Гуртом - субтитрування


З нами з: 09.01.10
Востаннє: 06.12.16
Повідомлень: 8663

2011-08-30 22:23  
Гарольд і Кумар ідуть у відрив / Гарольд і Кумар відриваються / Harold & Kumar Go to White Castle [UNRATED] (2004) 720p 2xUkr/Eng | Sub Eng



«Fast Food. High Times.»


Жанр: пригодницький, комедія
Країна: США, Канада, Німеччина



Кіностудія / кінокомпанія: Endgame Entertainment, Harold & Kumar, Kingsgate Films
Режисер: Денні Лайнер (Danny Leiner)
Актори: Джон Чо (John Cho), Кел Пенн (Kal Penn), Ентоні Андерсон (Anthony Anderson), Бойд Бенкс (Boyd Banks), Стів Браун (Steve Braun), Пола Ґарсес (Paula Garcіs), Девід Крумгольтц (David Krumholtz), Раян Рейнольдс (Ryan Reynolds) та інші.

Сюжет:
Те, що Гарольд і Кумар різні, видно одразу, але при цьому вони якось уживаються в одній квартирі! І ось одного дня, викуривши по цигарці і забувши знегоди, друзі вирішують наїстися гамбургерів. Свою поїздку вони запам'ятали назавжди! Узявши старт, друзі поринають в таку круговерть подій, що не встигають усвідомити що відбувається! Нічна чехарда не залишає їм часу на вибір. Вони відірвалися по повній! Хоч і не все змогли зрозуміти... Наприклад: звідки в їхньому місті стільки диких звірів? А може, їм це просто здалося?
Номінації

Премія каналу «MTV», 2005 рік
Номінації (2):
Найкращий музичний виступ (Джон Чо, Кел Пенн)
Найкраща екранна команда (Джон Чо, Кел Пенн)
• Бюджет: $9,000,000
MediaInfo

Код:
General
Unique ID                        : 221126517912207901930211331863260620841 (0xA65B6B116AE22DBB90AF463350C6E829)
Complete name                    : D:\HURTOM\Harold & Kumar Go to White Castle [Unrated] (2004) [2xUkr, Eng] 720p [Hurtom & HDClub].mkv
Format                           : Matroska
File size                        : 4.39 GiB
Duration                         : 1h 28mn
Overall bit rate                 : 7 113 Kbps
Movie name                       : Harold & Kumar Go to White Castle [Unrated] (2004) [2xUkr, Eng] 720p [Hurtom & HDClub]
Encoded date                     : UTC 2011-08-30 20:11:16
Writing application              : mkvmerge v4.7.0 ('Just Like You Imagined') зібрано Apr 21 2011 01:13:14
Writing library                  : libebml v1.2.0 + libmatroska v1.1.0
Cover                            : Yes / Yes / Yes

Video
ID                               : 1
Format                           : AVC
Format/Info                      : Advanced Video Codec
Format profile                   : [email protected]
Format settings, CABAC           : Yes
Format settings, ReFrames        : 16 frames
Codec ID                         : V_MPEG4/ISO/AVC
Duration                         : 1h 28mn
Bit rate                         : 5 444 Kbps
Width                            : 1 280 pixels
Height                           : 692 pixels
Display aspect ratio             : 1.850
Frame rate                       : 23.976 fps
Color space                      : YUV
Chroma subsampling               : 4:2:0
Bit depth                        : 8 bits
Scan type                        : Progressive
Bits/(Pixel*Frame)               : 0.256
Stream size                      : 3.28 GiB (75%)
Title                            : Harold & Kumar Go to White Castle [Unrated] (2004) [2xUkr, Eng] 720p [Hurtom & HDClub]
Writing library                  : core 60 r877M c74a8e2
Encoding settings                : cabac=1 / ref=16 / deblock=1:-3:-3 / analyse=0x3:0x133 / me=umh / subme=7 / me-prepass=0 / brdo=1 / mixed_ref=1 / me_range=45 / chroma_me=1 / trellis=0 / 8x8dct=1 / cqm=2 / deadzone=8,8 / chroma_qp_offset=0 / threads=6 / nr=0 / decimate=1 / mbaff=0 / fgo=9 / bframes=16 / b_pyramid=1 / b_adapt=1 / b_bias=0 / direct=3 / wpredb=1 / bime=1 / keyint=250 / keyint_min=25 / scenecut=40(pre) / rc=2pass / bitrate=5444 / ratetol=1.0 / rceq='blurCplx^(1-qComp)' / qcomp=1.00 / qpmin=10 / qpmax=51 / qpstep=4 / cplxblur=20.0 / qblur=0.5 / ip_ratio=1.40 / pb_ratio=1.16 / aq=2:0.80
Language                         : English

Audio #1
ID                               : 2
Format                           : AC-3
Format/Info                      : Audio Coding 3
Mode extension                   : CM (complete main)
Codec ID                         : A_AC3
Duration                         : 1h 28mn
Bit rate mode                    : Constant
Bit rate                         : 640 Kbps
Channel(s)                       : 6 channels
Channel positions                : Front: L C R, Side: L R, LFE
Sampling rate                    : 48.0 KHz
Bit depth                        : 16 bits
Compression mode                 : Lossy
Stream size                      : 405 MiB (9%)
Title                            : 5.1 @ 640 kbps  - Двоголосий закадровий | Новий канал
Language                         : Ukrainian

Audio #2
ID                               : 3
Format                           : AC-3
Format/Info                      : Audio Coding 3
Mode extension                   : CM (complete main)
Codec ID                         : A_AC3
Duration                         : 1h 28mn
Bit rate mode                    : Constant
Bit rate                         : 384 Kbps
Channel(s)                       : 6 channels
Channel positions                : Front: L C R, Side: L R, LFE
Sampling rate                    : 48.0 KHz
Bit depth                        : 16 bits
Compression mode                 : Lossy
Stream size                      : 243 MiB (5%)
Title                            : 5.1 @ 384 kbps  - Двоголосий закадровий
Language                         : Ukrainian

Audio #3
ID                               : 4
Format                           : AC-3
Format/Info                      : Audio Coding 3
Mode extension                   : CM (complete main)
Codec ID                         : A_AC3
Duration                         : 1h 28mn
Bit rate mode                    : Constant
Bit rate                         : 640 Kbps
Channel(s)                       : 6 channels
Channel positions                : Front: L C R, Side: L R, LFE
Sampling rate                    : 48.0 KHz
Bit depth                        : 16 bits
Compression mode                 : Lossy
Stream size                      : 405 MiB (9%)
Title                            : 5.1 @ 640 kbps
Language                         : English

Text #1
ID                               : 5
Format                           : UTF-8
Codec ID                         : S_TEXT/UTF8
Codec ID/Info                    : UTF-8 Plain Text
Title                            : Форсовані
Language                         : Ukrainian

Text #2
ID                               : 6
Format                           : ASS
Codec ID                         : S_TEXT/ASS
Codec ID/Info                    : Advanced Sub Station Alpha
Compression mode                 : Lossless
Language                         : English
Всі наявні релізи

Завантажити:
720p 2xUkr/Eng | Sub Eng (4.39 GB) - двоголосий закадровий Новий Канал і двоголосий закадровий запис звуку з 1+1
(Extended Cut) (1.46 GB) - двоголосий закадровий запис звуку з 1+1

Про озвучення від Нового Каналу
Ролі озвучили:

Про озвучення записане з 1+1
Ролі озвучили:
Тривалість: 01:28:23
Якість: 720p (ESiR)
Відео:
кодек:
розмір кадру: 1280x692
бітрейт: 5444 кб/с
частота кадрів: 23.976 fps

УВАГА, В КОЖНІЙ ДОРІЖЦІ Є МІСЦЯ БЕЗ ПЕРЕКЛАДУ!!! ТОМУ ПРИСУТНІ ФОРСОВАНІ СУБТИТРИ (13 фраз).

Аудіо # 1:
мова: українська
переклад: двоголосий закадровий | Новий Канал
кодек: 5.1
бітрейт: 640 кб/с

Аудіо # 2:
мова: українська
переклад: двоголосий закадровий | запис звуку з 1+1
кодек: 5.1
бітрейт: 384 кб/с

Аудіо # 3:
мова: англійська
переклад: оригінал
кодек: 5.1
бітрейт: 640 кб/с

Субтитри # 1:
мова: українська, форсовані (13 фраз)
тип: програмні (м'які)
формат: *.srt

Субтитри # 2:
мова: англійська (повні)
тип: програмні (м'які)
формат: *.аss

Скріншоти:





За доріжку №2 подяки yuraflash і abodnya
За доріжку №1 подяка HDClub-y і зокрема Прагматик-у


Джерело:
Особиста оцінка: не дивився


Срібний реліз (на рейтинг впливає 50% завантаженого)
 Трекер:    Зареєстрований   

Завантажити / скачати фільм українською



відео для новачків



 Зареєстрований:   2011-08-30 22:23
 Розмір:   4.39 GB 
 Оцінка фільму:   9.3/10 (Голосів: 17)
   
DеLight 
Відео Гуртом - фільмокрай
Відео Гуртом - фільмокрай


З нами з: 24.08.11
Востаннє: 17.11.16
Повідомлень: 664

2011-08-30 22:36  
Кумедний фільм Rolleyes (2) З якою озвучкою краще переглянути?
Віктор 
Відео Гуртом - субтитрування
Відео Гуртом - субтитрування


З нами з: 09.01.10
Востаннє: 06.12.16
Повідомлень: 8663

2011-08-30 22:44  
Dоnу написано:
Кумедний фільм Rolleyes (2) З якою озвучкою краще переглянути?


Повністю не дивився, але прослухавши уривки, думаю, що з озвучкою від Нового, там і якість самого звуку дещо краще і голоси приємніші, але від 1+1, теж гуд Happy тому обирайте самі.

Роздаю ще годинку (тож в кого гарний канал не обмежуйте), дороздаватиму завтра після обіду.

DеLight 
Відео Гуртом - фільмокрай
Відео Гуртом - фільмокрай


З нами з: 24.08.11
Востаннє: 17.11.16
Повідомлень: 664

2011-08-30 22:56  
w2958l

Зрозуміло Happy Дякую за 720p і UNRATED. Буде сенс ще раз переглянути.

Віктор 
Відео Гуртом - субтитрування
Відео Гуртом - субтитрування


З нами з: 09.01.10
Востаннє: 06.12.16
Повідомлень: 8663

2011-08-30 23:10  
Dоnу написано:
Зрозуміло Happy Дякую за 720p і UNRATED. Буде сенс ще раз переглянути.


Будь ласка)

AlanAlan 
Почесний гуртомівець


З нами з: 29.06.08
Востаннє: 06.02.16
Повідомлень: 1377

2011-08-31 10:53  
офф-топ видалив.
gagaboy 
VIP


З нами з: 22.12.10
Востаннє: 06.12.16
Повідомлень: 337

2011-08-31 11:05  
середнячковий фільм=))
Віктор 
Відео Гуртом - субтитрування
Відео Гуртом - субтитрування


З нами з: 09.01.10
Востаннє: 06.12.16
Повідомлень: 8663

2011-08-31 20:38  
Завантажив доріжку від HDClub-у на сервер.
Ваш часовий пояс: GMT + 2 Години

Нова тема   Відповісти