Завантажити та скачати торренти українською


Термінатор: Спасіння прийде [Режисерська вер.] / Terminator Salvation [Director's Cut] (2009) 720p Ukr/Eng | Sub Ukr/Eng

Нові коментарі

Нова тема   Відповісти
Автор Повідомлення
DеLight 
Відео Гуртом - фільмокрай
Відео Гуртом - фільмокрай


З нами з: 24.08.11
Востаннє: 17.11.16
Повідомлень: 664

2011-08-30 19:12  
Термінатор: Спасіння прийде [Режисерська версія] / Terminator Salvation [Director's Cut] (2009) 720p Ukr/Eng | Sub Ukr/Eng


«Початок кінця»


Жанр: драма, екшн, фантастика
Країна: США, Німеччина, Великобританія, Італія



Кіностудія / кінокомпанія: The Halcyon Company, IMF Internationale Medien und Film GmbH & Co. Produktions KG, Intermedia Films, Lin Pictures, T Asset Acquisition Company, Wonderland Sound and Vision
Режисер: МакДжі / McG
Актори: Крістіан Бейл / Christian Bale, Сем Уортінгтон / Sam Worthington, Мун Бладгуд / Moon Bloodgood, Хелена Бонем Картер / Helena Bonham Carter, Антон Єльчин / Anton Yelchin, Джадагрейс / Jadagrace, Брайс Даллас Ховард / Bryce Dallas Howard, Коммон / Common, Джейн Александр / Jane Alexander, Майкл Айронсайд / Michael Ironside, Іван Гьвера / Ivan G'Vera, Кріс Браунінг / Chris Browning, Доріан Нконо / Dorian Nkono, Бет Бейлі / Beth Bailey, Віктор Дж. Хо / Victor J. Ho

Сюжет:
2018 рік від Різдва Христового. Джон Коннор - людина, чия доля - очолити Опір електронному мозку Скайнет і армії Термінаторів. Але в майбутнє, з вірою в яке він виріс, вклинюється таємничий Маркус Райт: незнайомець, чиї останні спогади малюють камеру смертників.

Коннор повинен зрозуміти, хто такий Маркус - посланець майбутнього або він просто врятувався з минулого? І на тлі підготовки Скайнетом вирішального удару, Коннор і Райт відправляються в подорож, яка приводить їх в саму серцевину операційної системи, що збунтувалася, де відкривається жахлива таємниця, що криється за потенційним знищенням людства.


Тривалість: 01:57:31
Якість: 720p

Відео:
кодек:
розмір кадру: 1280 x 534
бітрейт: 6 481 кб/с

Аудіо # 1:
мова: українська
переклад: професійний дубльований
кодек: 5.1
бітрейт: 384 кб/с

Аудіо # 2:
мова: англійська
переклад: оригінал
кодек: 5.1
бітрейт: 640 кб/с

Переклад і озвучення виконано:


Субтитри #1: форсовані
мова: українська
тип: програмні (м'які)
формат: *.srt

Субтитри #2: повні
мова: українська
тип: програмні (м'які)
формат: *.srt

Субтитри #3: повні
мова: англійська
тип: програмні (м'які)
формат: *.srt

MediaInfo

Код:
General
Unique ID                        : 189613018522766113305740729908691302986 (0x8EA62396EFDA419C9F01CDC26AD17A4A)
Complete name                    : D:\Torrents\Terminator Salvation [Director's Cut] (2009) 720p [Ukr, Eng] by Dony.mkv
Format                           : Matroska
File size                        : 6.16 GiB
Duration                         : 1h 57mn
Overall bit rate                 : 7 505 Kbps
Movie name                       : Terminator Salvation [Director's Cut] (2009) 720p [Ukr, Eng] by Dony
Encoded date                     : UTC 2011-08-29 09:17:14
Writing application              : mkvmerge v4.8.0 ('I Got The...') зібрано May 24 2011 03:12:58
Writing library                  : libebml v1.2.0 + libmatroska v1.1.0

Video
ID                               : 1
Format                           : AVC
Format/Info                      : Advanced Video Codec
Format profile                   : [email protected]
Format settings, CABAC           : Yes
Format settings, ReFrames        : 7 frames
Muxing mode                      : Header stripping
Codec ID                         : V_MPEG4/ISO/AVC
Duration                         : 1h 57mn
Bit rate                         : 6 481 Kbps
Width                            : 1 280 pixels
Height                           : 534 pixels
Display aspect ratio             : 2.35:1
Frame rate                       : 23.976 fps
Color space                      : YUV
Chroma subsampling               : 4:2:0
Bit depth                        : 8 bits
Scan type                        : Progressive
Bits/(Pixel*Frame)               : 0.395
Stream size                      : 5.20 GiB (84%)
Title                            : Terminator Salvation [Director's Cut] (2009) 720p
Writing library                  : core 80 r1373M 4322f63
Encoding settings                : cabac=1 / ref=7 / deblock=1:-3:-3 / analyse=0x3:0x113 / me=umh / subme=9 / psy=1 / psy_rd=0.9:0.1 / mixed_ref=1 / me_range=48 / chroma_me=1 / trellis=2 / 8x8dct=1 / cqm=0 / deadzone=21,11 / fast_pskip=0 / chroma_qp_offset=-3 / threads=8 / sliced_threads=0 / nr=0 / decimate=1 / mbaff=0 / constrained_intra=0 / bframes=6 / b_pyramid=2 / b_adapt=2 / b_bias=0 / direct=3 / wpredb=1 / wpredp=2 / keyint=250 / keyint_min=25 / scenecut=40 / rc=2pass / mbtree=0 / bitrate=6481 / ratetol=1.0 / qcomp=0.60 / qpmin=10 / qpmax=51 / qpstep=4 / cplxblur=20.0 / qblur=0.5 / ip_ratio=1.40 / pb_ratio=1.30 / aq=1:0.60
Language                         : English

Audio #1
ID                               : 2
Format                           : AC-3
Format/Info                      : Audio Coding 3
Mode extension                   : CM (complete main)
Muxing mode                      : Header stripping
Codec ID                         : A_AC3
Duration                         : 1h 57mn
Bit rate mode                    : Constant
Bit rate                         : 384 Kbps
Channel(s)                       : 6 channels
Channel positions                : Front: L C R, Side: L R, LFE
Sampling rate                    : 48.0 KHz
Bit depth                        : 16 bits
Compression mode                 : Lossy
Stream size                      : 323 MiB (5%)
Title                            : 5.1, 384 kbps
Language                         : Ukrainian

Audio #2
ID                               : 3
Format                           : AC-3
Format/Info                      : Audio Coding 3
Mode extension                   : CM (complete main)
Muxing mode                      : Header stripping
Codec ID                         : A_AC3
Duration                         : 1h 57mn
Bit rate mode                    : Constant
Bit rate                         : 640 Kbps
Channel(s)                       : 6 channels
Channel positions                : Front: L C R, Side: L R, LFE
Sampling rate                    : 48.0 KHz
Bit depth                        : 16 bits
Compression mode                 : Lossy
Stream size                      : 538 MiB (9%)
Title                            : 5.1, 640 kbps
Language                         : English

Text #1
ID                               : 4
Format                           : UTF-8
Codec ID                         : S_TEXT/UTF8
Codec ID/Info                    : UTF-8 Plain Text
Title                            : the forced
Language                         : Ukrainian

Text #2
ID                               : 5
Format                           : UTF-8
Codec ID                         : S_TEXT/UTF8
Codec ID/Info                    : UTF-8 Plain Text
Title                            : full
Language                         : Ukrainian

Text #3
ID                               : 6
Format                           : UTF-8
Codec ID                         : S_TEXT/UTF8
Codec ID/Info                    : UTF-8 Plain Text
Title                            : full
Language                         : English
Інформація про дубляж

Ролі дублювали: Борис Георгіївський, Андрій Мостренко, Катерина Коновалова, Павло Скороходько, Юлія Перенчук, Ніна Касторф та ін.
Режисер дубляжу: Анна Пащенко
Переклад тексту: Федор Сидорук
Редактор: Валентина Левицька
Звукорежисер: Олексій Загарін
Асистент режисера: Євгенія Захваткіна
Координатор проекту: Лариса Шаталова
Фільм дубльовано компанією «Невафільм Україна», Київ 2009р.
Трейлер українською

Скріншоти














Джерело:
Особиста оцінка: 9


 Трекер:    Зареєстрований   

Завантажити / скачати фільм українською



відео для новачків



 Зареєстрований:   2011-08-30 19:12
 Розмір:   6.16 GB 
 Оцінка фільму:   9.4/10 (Голосів: 35)
   
gagaboy 
VIP


З нами з: 22.12.10
Востаннє: 07.12.16
Повідомлень: 337

2011-08-31 11:06  
дякую =)
Oster_NSE 
Новенький


З нами з: 02.05.11
Востаннє: 22.06.16
Повідомлень: 5

2011-08-31 22:45  
Велике Спасибі Happy
Art_Wolf 
Новенький


З нами з: 21.02.10
Востаннє: 23.10.16
Повідомлень: 5

2011-09-01 15:14  
скажите, пожалуйста, тут полный перевод, на расширенных местах есть перевод?
DеLight 
Відео Гуртом - фільмокрай
Відео Гуртом - фільмокрай


З нами з: 24.08.11
Востаннє: 17.11.16
Повідомлень: 664

2011-09-01 15:19  
Art_Wolf

Немає. Використовуються форсовані субтитри 2-3 хвилини.

Art_Wolf 
Новенький


З нами з: 21.02.10
Востаннє: 23.10.16
Повідомлень: 5

2011-09-01 15:28  
Dоnу
спасибо за реакцию

ALUCARD1978 
Новенький


З нами з: 04.12.12
Востаннє: 03.10.16
Повідомлень: 10

2015-07-03 08:14  
Шикарно!
Дякую!

Ваш часовий пояс: GMT + 2 Години

Нова тема   Відповісти