Завантажити та скачати торренти українською


Ранго / Rango [EXTENDED] (2011) Ukr/Eng

Нові коментарі

Нова тема   Відповісти
Автор Повідомлення
StarGameR 
Новенький


З нами з: 30.12.10
Востаннє: 01.12.16
Повідомлень: 14

2011-08-26 17:04  
Ранго / Rango [EXTENDED] (2011) Ukr/Eng



Жанр: мультфільм, бойовик, комедія, пригоди, родинний, вестерн
Країна: США



Кіностудія / кінокомпанія: Industrial Light & Magic (ILM), Blind Wink, GK Films
Режисер: Гор Вербинські
Ролі озвучують: Джонні Депп, Айла Фішер, Ебігейл Бреслін, Альфред Моліна, Білл Найі, Стівен Рут

Сюжет:
Ранго — хамелеон, який живе в тераріумі і вважає себе героєм, якому, на жаль, ніяк не удається проявити свою безстрашність. Але коли він раптово опиняється в містечку Грязь, у нього з'являється така можливість. Ранго проголошує себе борцем за справедливість і починає поводитися як шериф на Дикому Заході. Він ще не знає, що бути «хорошим парубком» в цих краях не сама завидна доля.


Тривалість: 01:51:50
Якість:
Відео:
кодек:
розмір кадру: 720х304
бітрейт: 1785 кб/с

Аудіо # 1:
мова: українська
переклад: професійний дубльований
кодек: 5.1
бітрейт: 640 кб/с

Аудіо # 2:
мова: англійська
переклад: оригінал
кодек: 5.1
бітрейт: 384 кб/с

Переклад і озвучення виконано:


Особиста оцінка: 8 - мені сподобалося
Скріншоти









 Трекер:    Зареєстрований   

Завантажити / скачати мультфільм українською



відео для новачків



 Зареєстрований:   2011-08-26 17:04
 Розмір:   2.24 GB 
 Оцінка мультфільму:   9.7/10 (Голосів: 98)
   
stremdima 
VIP


З нами з: 07.02.09
Востаннє: 03.12.16
Повідомлень: 522

2011-08-26 17:14  
Я надіюсь тут звук не з TS?
StarGameR 
Новенький


З нами з: 30.12.10
Востаннє: 01.12.16
Повідомлень: 14

2011-08-26 17:15  
stremdima написано:
Я надіюсь тут звук не з TS?

Ні

ЙОЖЕГ 
Новенький


З нами з: 19.04.10
Востаннє: 03.12.16
Повідомлень: 9

2011-08-26 17:20  
Нарешті в нормальній якості Happy Аби ще озвучка не підкачала Happy

А що саме добавлено/змінено в EXTENDED-версії?

karvai0 
Відео Гуртом - запис з ТБ
Відео Гуртом - запис з ТБ


З нами з: 18.01.10
Востаннє: 09.09.16
Повідомлень: 3686

2011-08-26 17:33  
ЙОЖЕГ написано:
А що саме добавлено/змінено в EXTENDED-версії?

тут

gagaboy 
VIP


З нами з: 22.12.10
Востаннє: 04.12.16
Повідомлень: 337

2011-08-26 17:42  
мульт бомба! =)
ЙОЖЕГ 
Новенький


З нами з: 19.04.10
Востаннє: 03.12.16
Повідомлень: 9

2011-08-26 17:45  
karvai0

Дякую Happy

karvai0 
Відео Гуртом - запис з ТБ
Відео Гуртом - запис з ТБ


З нами з: 18.01.10
Востаннє: 09.09.16
Повідомлень: 3686

2011-08-26 17:49  
StarGameR написано:

кодек: 5.1
бітрейт: 640 кб/с

навіщо такий високий бітрейт?

Acint 
Новенький


З нами з: 15.04.09
Востаннє: 03.12.16
Повідомлень: 9

2011-08-26 18:48  
StarGameR
Роздача з електрички? Якщо так, то підставлю доріжку і допоможу роздати

zadrotina10 
Новенький


З нами з: 16.07.11
Востаннє: 23.11.11
Повідомлень: 1

2011-08-26 19:24  
а коли двд 9 буде?
eXteSy- 
VIP


З нами з: 06.04.09
Востаннє: 04.12.16
Повідомлень: 1453

2011-08-26 19:36  
Буде роздача з меншим розміром?
hellforces 
VIP


З нами з: 25.06.08
Востаннє: 11.11.16
Повідомлень: 1556

2011-08-26 20:32  
ріп поганенький підібрали, чому не взяли кращий?
FaB0SS 
Відео Гуртом - фільмокрай
Відео Гуртом - фільмокрай


З нами з: 04.08.08
Востаннє: 04.12.16
Повідомлень: 522

2011-08-26 21:40  
Цитата:
Буде роздача з меншим розміром?

Так

Dark Invader 
Модератор відео


З нами з: 06.01.11
Востаннє: 04.12.16
Повідомлень: 1861

2011-08-26 21:51  
Дякую. Нарешті дочекавсь Wink (2)
urij546724 
Відео Гуртом - фільмокрай
Відео Гуртом - фільмокрай


З нами з: 16.03.10
Востаннє: 03.12.16
Повідомлень: 5222

2011-08-26 21:53  
hellforces написано:
ріп поганенький підібрали, чому не взяли кращий?

А чим цей поганий? Далі вже HD. Wink (2)
І так з 640 деякі DVD давитись можуть.
Ну а якщо по скрінах судиш, то вони в жипезі, тож не повнясть відображають якість. Wink (2)

Гуцул 
Свій


З нами з: 21.04.09
Востаннє: 22.11.16
Повідомлень: 51

2011-08-27 10:45  
stremdima Немає місць без перекладу?
michalych 
Новенький


З нами з: 14.09.10
Востаннє: 03.12.16
Повідомлень: 22

2011-08-27 18:03  
General
Unique ID : 206182415415729752526644547189103389929 (0x9B1D49EDD91E2725A7DB98C61DF3ECE9)
Complete name : E:\Downloads\Rango.EXTENDED.2011.[Ukr, Eng]..avi
Format : Matroska
Format version : Version 2
File size : 2.24 GiB
Duration : 1h 51mn
Overall bit rate : 2 866 Kbps
Movie name : HANSMER
Encoded date : UTC 2011-08-25 14:45:30
Writing application : mkvmerge v4.0.0 ('The Stars were mine') сборка от Jun 6 2010 16:18:42
Writing library : libebml v1.0.0 + libmatroska v1.0.0

Video
ID : 1
Format : MPEG-4 Visual
Format profile : Advanced [email protected]
Format settings, BVOP : Yes
Format settings, QPel : No
Format settings, GMC : No warppoints
Format settings, Matrix : Custom
Codec ID :
Codec ID/Hint :
Duration : 1h 51mn
Bit rate : 1 785 Kbps
Width : 720 pixels
Height : 304 pixels
Display aspect ratio : 2.35:1
Frame rate : 23.976 fps
Color space : YUV
Chroma subsampling : 4:2:0
Bit depth : 8 bits
Scan type : Progressive
Compression mode : Lossy
Bits/(Pixel*Frame) : 0.340
Stream size : 1.39 GiB (62%)
Writing library : 58

Audio #1
ID : 2
Format : AC-3
Format/Info : Audio Coding 3
Mode extension : CM (complete main)
Codec ID : A_AC3
Duration : 1h 51mn
Bit rate mode : Constant
Bit rate : 640 Kbps
Channel(s) : 6 channels
Channel positions : Front: L C R, Side: L R, LFE
Sampling rate : 48.0 KHz
Bit depth : 16 bits
Compression mode : Lossy
Stream size : 512 MiB (22%)
Language : Ukrainian

Audio #2
ID : 3
Format : AC-3
Format/Info : Audio Coding 3
Mode extension : CM (complete main)
Codec ID : A_AC3
Duration : 1h 51mn
Bit rate mode : Constant
Bit rate : 384 Kbps
Channel(s) : 6 channels
Channel positions : Front: L C R, Side: L R, LFE
Sampling rate : 48.0 KHz
Bit depth : 16 bits
Compression mode : Lossy
Stream size : 307 MiB (13%)

Чому формат "матрьошка"? У мене Віртуал Даб Мод "вилетів" після знайомства з цим файлом.

Vetal-XL 
VIP


З нами з: 31.03.10
Востаннє: 04.12.16
Повідомлень: 837

2011-08-27 18:12  
Шикарний мульт! А озвучка як завжди на висоті Happy
michalych 
Новенький


З нами з: 14.09.10
Востаннє: 03.12.16
Повідомлень: 22

2011-08-27 18:14  
P.S. Змінив розширення на mkv, Віртуал Даб відкрив, але без рекомпресії не зберігає в avi, матюкається на непідходяще відео.
Forestelf 
VIP


З нами з: 06.02.09
Востаннє: 21.01.16
Повідомлень: 894

2011-08-27 19:57  
Неймовірний мультфільм, дуже сподобався, цікавий сюжет, веселі моменти, а ще до цього як на мене гарне озвучення. У кожного виду тварин своя манера, свій говір додає свій шарм. Ось пишу і навіть не дивно чому редактори надали кротам "східні говори". Дякую.
respect14 
VIP


З нами з: 26.01.11
Востаннє: 03.12.16
Повідомлень: 376

2011-08-27 22:22  
ОО дякую, якраз такий ріпик мені канає)
Mr.Emm 
Поважний учасник


З нами з: 03.08.08
Востаннє: 03.12.16
Повідомлень: 178

2011-08-31 20:33  
Однозначно крутий мульт! 8)
Co4oK 
Новенький


З нами з: 21.08.11
Востаннє: 06.01.12
Повідомлень: 2

2011-09-09 18:16  
Спасибі :roll4:

Додано через 5 хвилин 21 секунду:

Спасибі

Meganogaga 
Свій


З нами з: 28.04.11
Востаннє: 04.12.16
Повідомлень: 89

2011-10-09 13:06  
озвучка не дуже а мульт прикольний
imonko 
Відео Гуртом - фільмокрай
Відео Гуртом - фільмокрай


З нами з: 20.07.08
Востаннє: 31.10.16
Повідомлень: 7309

2011-11-29 21:33  
не сподобалось, майже взагалі, 3/10 і то за анімацію і посилання на інші фільми
solenyj 
Частий відвідувач


З нами з: 26.11.11
Востаннє: 05.04.16
Повідомлень: 25

2012-01-29 14:14  
мульт клас, але звук хріновий. через це важко насолодись дубляжем.
і чому нема титрів про озвучку? автор перекладу, акториSad (1)

Додано через 11 хвилин 4 секунди:

мульт клас, але звук хріновий. через це важко насолодитись дубляжем.
і чому нема титрів про озвучку? автор перекладу, акториSad (1)

Ваш часовий пояс: GMT + 2 Години

Нова тема   Відповісти