Завантажити та скачати торренти українською


Рура | Дискографія (2 альбоми) (2007-2008) [FLAC] | Folk-Rock

Нові коментарі

Нова тема   Відповісти
Останній раз роздавалося Myfordownloads (2016-10-09)
Автор Повідомлення
fv007 
VIP


З нами з: 01.01.10
Востаннє: 10.12.16
Повідомлень: 449

2011-08-24 21:18  
Рура | Дискографія (2 альбоми) (2007-2008) [FLAC] | Folk-Rock



Стиль: Folk-Rock
Країна, місто: Україна, Івано-Франківськ
Сайти: Офіційний сайт
Видавець: UKRmuzic, МА "Наш Формат"
Виконавці:
Альбом "Моя любов":

Леонов Сергій – гітара,вокал
Мосій Віктор – бас гітара
Льоба Олександр – гітара, вокал, труба, сопілка, трещоткі
Данило Добровольський – бас, вокал, труба
Шмалько Костя – барабани, вокал
Мартищенко Роман – всякі файні бубники та вокал
Качанов Олександр – саксофон, клавіші
Альбом "Бджілка Майя":

Леонов Сергій – гітара, вокал
Мосій Віктор – бас гітара
Льоба Олександр – гітара, вокал
Мартищенко Роман – перкусія, вокал
Качанов Олександр – саксофон
Паучек Володимир – сопілка
Тарасенко Євген - барабани
Шмалько Костянтин – ударні
Альбоми:
    РУРА (2006) (Відсутній у роздачі)

    Увага! Альбом відсутній у роздачі.


    Пісні:
    01. Колгосп
    02. Рура
    03. Подруга
    04. 2 Карася
    05. Німці
    06. Я, Ми і Ви
    07. Моя люба
    08. Хуліган
    09. Поліцай
    10. Місяць
    11. Вікна
    12. Золота Ріка
    13. Сніговик
    14. Дівчина Моя
    15. Мадонна
    Тривалість:
    Мова:Українська
    Аудіо-кодек:
    Бітрейт:
    Моя любов (2007)


    Пісні:
    01. Disko
    02. Бджілка майа
    03. Ол зет wi вонтс
    04. Гімн України
    05. Пам'ятаєш?
    06. Гандзя
    07. Од Києва до Лубен
    08. Свєта
    09. Весна
    10. Війна
    11. Грузинська
    12. Бажання
    13. Мобільна Рура
    14. Серце
    15. Ангел
    бонус
    16. Дощ
    Тривалість: 43:03
    Мова:Українська
    Аудіо-кодек: FLAC
    Бітрейт: 1020 кб/с
    log
    Exact Audio Copy V0.99 prebeta 3 from 28. July 2007

    Отчёт EAC об извлечении, выполненном 23. августа 2011, 23:47

    Рура / Моя любов

    Дисковод: HL-DT-STDVDRAM GSA-4167B Adapter: 0 ID: 1

    Режим чтения : Достоверность
    Использование точного потока : Да
    Отключение кэша аудио : Да
    Использование указателей C2 : Нет

    Комбинированное смещение чтения/записи : 0
    Способность читать области Lead-in и Lead-out : Нет
    Заполнение пропущенных сэмплов тишиной : Да
    Удаление блоков с тишиной в начале и конце : Нет
    При вычислениях CRC использовались нулевые сэмплы : Да
    Интерфейс : Встроенный Win32-интерфейс для Win NT/2000

    Выходной формат : Пользовательский кодировщик
    Выбранный битрейт : 768 kBit/s
    Качество : Высокий
    Добавление ID3-тэга : Нет
    Утилита сжатия : C:\Program Files\Exact Audio Copy\FLAC\FLAC.EXE
    Дополнительные параметры : -8 -V -T "ARTIST=%a" -T "TITLE=%t" -T "ALBUM=%g" -T "DATE=%y" -T "TRACKNUMBER=%n" -T "GENRE=%m" -T "COMMENT=%e" %s -o %d

    TOC извлечённого CD

    Трек | Старт | Длительность | Начальный сектор | Конечный сектор
    ---------------------------------------------------------------------
    1 | 0:00.00 | 1:51.73 | 0 | 8397
    2 | 1:51.73 | 3:05.51 | 8398 | 22323
    3 | 4:57.49 | 3:32.74 | 22324 | 38297
    4 | 8:30.48 | 2:12.28 | 38298 | 48225
    5 | 10:43.01 | 2:01.68 | 48226 | 57368
    6 | 12:44.69 | 2:22.43 | 57369 | 68061
    7 | 15:07.37 | 4:46.06 | 68062 | 89517
    8 | 19:53.43 | 2:34.38 | 89518 | 101105
    9 | 22:28.06 | 2:12.17 | 101106 | 111022
    10 | 24:40.23 | 2:06.19 | 111023 | 120491
    11 | 26:46.42 | 1:28.51 | 120492 | 127142
    12 | 28:15.18 | 3:05.61 | 127143 | 141078
    13 | 31:21.04 | 3:07.66 | 141079 | 155169
    14 | 34:28.70 | 2:26.29 | 155170 | 166148
    15 | 36:55.24 | 3:14.00 | 166149 | 180698
    16 | 40:09.24 | 2:54.45 | 180699 | 193793

    Характеристики диапазона извлечения и сообщения об ошибках

    Выбранный диапазон

    Имя файла D:\1. Українська\Р\Рура\2007 - Моя любов\Рура - Моя любов.wav

    Пиковый уровень 100.0 %
    Качество диапазона 100.0 %
    CRC копии 1C9F2AF2
    Копирование... OK

    Ошибок не произошло

    Конец отчёта
    Бджілка Майя (2008)


    Пісні:
    01. Disko
    02. Бджілка майа
    03. Ол зет wi вонтс
    04. Гімн України
    05. Пам'ятаєш?
    06. Гандзя
    07. Од Києва до Лубен
    08. Свєта
    09. Весна
    10. Війна
    11. Грузинська
    12. Бажання
    13. Мобільна Рура
    14. Серце
    15. Ангел
    бонус
    16. Дощ
    Тривалість: 39:14
    Мова:Українська
    Аудіо-кодек: FLAC
    Бітрейт: 909 кб/с
    log
    Exact Audio Copy V0.99 prebeta 3 from 28. July 2007

    Отчёт EAC об извлечении, выполненном 29. июля 2011, 19:23

    Рура / Бджілка Майя

    Дисковод: HL-DT-STDVDRAM GSA-4167B Adapter: 0 ID: 1

    Режим чтения : Достоверность
    Использование точного потока : Да
    Отключение кэша аудио : Нет
    Использование указателей C2 : Да

    Комбинированное смещение чтения/записи : 0
    Способность читать области Lead-in и Lead-out : Нет
    Заполнение пропущенных сэмплов тишиной : Да
    Удаление блоков с тишиной в начале и конце : Нет
    При вычислениях CRC использовались нулевые сэмплы : Да
    Интерфейс : Встроенный Win32-интерфейс для Win NT/2000

    Выходной формат : Пользовательский кодировщик
    Выбранный битрейт : 768 kBit/s
    Качество : Высокий
    Добавление ID3-тэга : Нет
    Утилита сжатия : C:\Program Files\Exact Audio Copy\FLAC\FLAC.EXE
    Дополнительные параметры : -6 -V -T "ARTIST=%a" -T "TITLE=%t" -T "ALBUM=%g" -T "DATE=%y" -T "TRACKNUMBER=%n" -T "GENRE=%m" -T "COMMENT=%e" %s -o %d

    TOC извлечённого CD

    Трек | Старт | Длительность | Начальный сектор | Конечный сектор
    ---------------------------------------------------------------------
    1 | 0:00.00 | 2:20.32 | 0 | 10531
    2 | 2:20.32 | 1:37.61 | 10532 | 17867
    3 | 3:58.18 | 2:36.37 | 17868 | 29604
    4 | 6:34.55 | 2:19.45 | 29605 | 40074
    5 | 8:54.25 | 4:19.74 | 40075 | 59573
    6 | 13:14.24 | 2:16.07 | 59574 | 69780
    7 | 15:30.31 | 0:37.02 | 69781 | 72557
    8 | 16:07.33 | 2:23.07 | 72558 | 83289
    9 | 18:30.40 | 3:15.11 | 83290 | 97925
    10 | 21:45.51 | 2:38.70 | 97926 | 109845
    11 | 24:24.46 | 1:50.17 | 109846 | 118112
    12 | 26:14.63 | 1:43.45 | 118113 | 125882
    13 | 27:58.33 | 2:21.47 | 125883 | 136504
    14 | 30:20.05 | 2:52.30 | 136505 | 149434
    15 | 33:12.35 | 2:26.38 | 149435 | 160422
    16 | 35:38.73 | 3:38.21 | 160423 | 176793

    Характеристики диапазона извлечения и сообщения об ошибках

    Выбранный диапазон

    Имя файла D:\1. Українська\Р\Рура\2008 Бджілка Майя [FLAC]\Рура - Бджілка Майя.wav

    Пиковый уровень 100.0 %
    Качество диапазона 100.0 %
    CRC копии 96629550
    Копирование... OK

    Ошибок не произошло

    Конец отчёта

Тривалість: 01:22:21
Мова: українська
Аудіо-кодек: FLAC
Бітрейт: 909-1020 кб/с
Джерело: CD
Додаткова інформація:
*
Надзвичайно позитивний і цікавий рок-гурт з Івано-Франківська, грають фольк-рок (самі музиканти називають свій стиль хепі-роком). Гурт засновано у 2006 році учасником гурту "Хвилю Тримай" Сергієм Леоновим (LEON). На самих початках гурт складався з музикантів двох гуртів "Хвилю Тримай" та "Перкалаби". На сьогодні від Рури зразка 2006-го року в основному складі, залишився тільки ідейний натхненник Сергій Леонов - усі решта-новачки.
Якщо Ви справді бажаєте підтримати українське - після прослуховування, якщо музика вам сподобалась, придбайте ліцензійний диск. Підтримаймо вітчизняних виконавців!


Золотий реліз (завантажене не впливає на рейтинг)
 Трекер:    Зареєстрований   

Завантажити / скачати українську музику



відео для новачків



 Зареєстрований:   2011-08-24 21:18
 Розмір:   578 MB 
 Оцінка музики:   9.7/10 (Голосів: 9)
   
ssTAss 
Модератор музики


З нами з: 05.07.08
Востаннє: 10.12.16
Повідомлень: 10950

2011-08-24 21:41  
в загальній інформації забули стрічку "Бітрейт"
впишіть межі
fv007 написано:
Дискографія

щоб була і справді дискографія, бракує одного альбому
в опис його додайте (без кодеку і бітрейту) з позначкою відсутній в роздачі

gosha.samovar 
VIP


З нами з: 08.09.10
Востаннє: 09.12.16
Повідомлень: 400

2013-03-16 15:10  
Роздайте, будь ласка.

Дякую.

ssTAss 
Модератор музики


З нами з: 05.07.08
Востаннє: 10.12.16
Повідомлень: 10950

2013-03-16 16:17  
gosha.samovar написано:
Роздайте, будь ласка.

вже стаю на роздачу

Ваш часовий пояс: GMT + 2 Години

Нова тема   Відповісти