Завантажити та скачати торренти українською


Ot Vinta - Потом і Кров'ю (2011) [FLAC] | Ukrabilly

Нові коментарі

Нова тема   Відповісти
Автор Повідомлення
Rosenbom 
Частий відвідувач


З нами з: 28.10.07
Востаннє: 09.12.16
Повідомлень: 40

2011-08-23 11:05  
Ot Vinta - Потом і Кров'ю (2011) [FLAC] | Ukrabilly



Стиль: Rock'n'Roll
Країна, місто: Україна, Рівне
Сайти: Офіційний сайт
Видавець: Comp Music

Виконавці:
Юрій Журавель (вокал, гітара, гармоніка)
Віктор Пилипчук (гітара, сопілка, бек-вокал)
Володимир Загиней (контрабас, бек-вокал)
Олександр Мартюшев (барабани)

Пісні:
    1. Потом і кров'ю
    2. Бабина тумба
    3. Шиді-ріді
    4. Люблю
    5. У мене між ногами ...
    6. 17 москалів
    7. 4 вози солі
    8. Гайда за журавлем
    9. Балада про сіль
    10. Фортеця
    11. Пісня конвалій
    12. Дзинь
    13. Ла-ла-ла
    14. Асенізатор
    15. Сухарі розмочи

    + бонус "Па-ла-ла-ла-ла-лац"
"Log EAC"

Exact Audio Copy V1.0 beta 2 from 29. April 2011

Отчёт EAC об извлечении, выполненном 23. августа 2011, 9:40

Ot Vinta / Потом і Кров'ю

Дисковод: Optiarc DVD RW AD-7191S Adapter: 5 ID: 0

Режим чтения : Достоверность
Использование точного потока : Да
Отключение кэша аудио : Да
Использование указателей C2 : Нет

Коррекция смещения при чтении : 6
Способность читать области Lead-in и Lead-out : Нет
Заполнение пропущенных сэмплов тишиной : Да
Удаление блоков с тишиной в начале и конце : Нет
При вычислениях CRC использовались нулевые сэмплы : Да
Интерфейс : Встроенный Win32-интерфейс для Win NT/2000

Выходной формат : Пользовательский кодировщик
Выбранный битрейт : 768 kBit/s
Качество : Высокий
Добавление ID3-тега : Нет
Утилита сжатия : D:\Program Files\Exact Audio Copy\FLAC\FLAC.EXE
Дополнительные параметры : -6 -V -T "ARTIST=%artist%" -T "TITLE=%title%" -T "ALBUM=%albumtitle%" -T "DATE=%year%" -T "TRACKNUMBER=%tracknr%" -T "GENRE=%genre%" -T "COMMENT=%comment%" %hascover%--picture="%coverfile%"%hascover% %source% -o %dest%

TOC извлечённого CD

Трек | Старт | Длительность | Начальный сектор | Конечный сектор
---------------------------------------------------------------------
1 | 0:00.00 | 3:18.41 | 0 | 14890
2 | 3:18.41 | 3:46.66 | 14891 | 31906
3 | 7:05.32 | 2:58.39 | 31907 | 45295
4 | 10:03.71 | 2:21.62 | 45296 | 55932
5 | 12:25.58 | 3:59.20 | 55933 | 73877
6 | 16:25.03 | 2:48.73 | 73878 | 86550
7 | 19:14.01 | 3:13.62 | 86551 | 101087
8 | 22:27.63 | 2:47.23 | 101088 | 113635
9 | 25:15.11 | 5:38.11 | 113636 | 138996
10 | 30:53.22 | 3:20.47 | 138997 | 154043
11 | 34:13.69 | 2:44.01 | 154044 | 166344
12 | 36:57.70 | 1:31.29 | 166345 | 173198
13 | 38:29.24 | 3:09.27 | 173199 | 187400
14 | 41:38.51 | 3:54.32 | 187401 | 204982
15 | 45:33.08 | 1:51.27 | 204983 | 213334
16 | 47:24.35 | 3:34.48 | 213335 | 229432

Характеристики диапазона извлечения и сообщения об ошибках

Выбранный диапазон

Имя файла C:\Users\Rosenbom\Music\Ot Vinta - Потом і Кров'ю.wav

Пиковый уровень 96.3 %
Скорость извлечения 1.7 X
Качество диапазона 100.0 %
CRC теста 31B70412
CRC копии 31B70412
Копирование... OK

Ошибок не произошло

Конец отчёта

==== Контрольная сумма отчёта EFC46D15176E8B985501C53E6AB78CD44233720D195121D8C78EB4598A873918 ====
Тривалість: 00:51:03
Мова: українська
Аудіо-кодек: FLAC
Бітрейт: 980 кб/с
Джерело: Власний диск

Додаткова інформація:
Гурт OT VINTA презентував новий альбом - "Потом і кров'ю". До платівки, на яку прихильники "гвинтів" чекали довгі чотири роки, увійшло 17 треків. Серед них вже відомі концертні хіти "Бабина тумба", "Потом і кров'ю", "Люблю", а також зовсім свіжі композиції – "У мене між ногами Україна" (пісня про велосипед "Україна"), "Гайда за журавлем", "Балада про сіль".

"Зазвичай, ми не торкалися політики і писали легкі безтурботні пісні, проте у цьому альбомі вперше з'являться треки, в яких ми говоримо про те що накипіло. Тому альбом вийшов різноманітним. Поряд із відвертими злободенними піснями тут є ліричні композиції про кохання та балади".

Окрім власних авторських пісень, OT VINTA додали до диску кілька кавер-версій. У альбомі мала бути композиція про шахтарів, адаптація світового хіта "16 tons". Ідею пісні хлопцям підкинув казкар Сашко Лірник, він же адаптував текст українською мовою. Але, на жаль, лейбл, який видавав альбом "Потом і кров'ю", поки що не узгодив питання із авторським правом, тому пісня до цього альбому не увійшла.

Також "гвинти" записали кавер-версії двох пісень "Вася Club" - "Ла ла ла" та "Шиди риди", та веселий і драйвовий варіант "Jingle Bells", що отримав назву "Дзинь".






Якщо Ви справді бажаєте підтримати українське - після прослуховування, якщо музика вам сподобалась, придбайте ліцензійний диск. Підтримаймо вітчизняних виконавців!


Срібний реліз (на рейтинг впливає 50% завантаженого)
 Трекер:    Зареєстрований   

Завантажити / скачати українську музику



відео для новачків



 Зареєстрований:   2011-08-23 11:05
 Розмір:   362 MB 
 Оцінка музики:   9.8/10 (Голосів: 34)
   
ssTAss 
Модератор музики


З нами з: 05.07.08
Востаннє: 09.12.16
Повідомлень: 10948

2011-08-23 20:36  
дякую
всі теги заповнили чітко і грамотно
і музичка драйвова
Бабина тумба, 17 москалів, Балада про сіль... і навіть джинглобелівська Дзинь
гарний альбом вийшов у вінтів

P.S. в назві папки зробили помилку (рік), але вже най буде
Rosenbom написано:
Папка: Ot Vinta - 2001 - Потом і Кров\'ю

lpershyi 
Попереджень: 2
Попереджень: 2 


З нами з: 04.01.11
Востаннє: 30.11.16
Повідомлень: 2622

2011-08-26 11:25  
Rosenbom написано:
6. 17 москалів
я перший раз чув цю пародію на мелодію у телесеріалі Великих Перегонах, але не нашою Sad (1) Версія від От Вінта неперевершена! П.С.: як у флак добавлять обкладинку кружальця?
civ 
VIP


З нами з: 16.02.11
Востаннє: 09.12.16
Повідомлень: 429

2011-08-26 20:24  
lpershyi написано:
як у флак добавлять обкладинку кружальця?

Останній foobar вміє. А так - тільки програмою metaflac з командного рядка. Я більше способів не знаю.

weber 
Почесний гуртомівець


З нами з: 03.08.08
Востаннє: 09.12.16
Повідомлень: 7003

2011-08-27 16:05  
civ написано:
Останній foobar вміє.

та він багато чого вміє, користуюся ним десь з 2005.

Дякую за роздачу, хороший альбом.

catkiev 
Новенький


З нами з: 12.01.10
Востаннє: 17.11.16
Повідомлень: 8

2012-04-21 21:47  
дякую!!! дійсно давно нивинок від них не було!!! "Криївка" (17 москалів) просто порвала!
Ваш часовий пояс: GMT + 2 Години

Нова тема   Відповісти