Завантажити та скачати торренти українською


Все про Міккі Мауса (Сезон 1, серії: 8-10, 15, 23-25) / Mickey Mouse Works (Season 1, eps: 8-10, 15, 23-25) (1999-2000)

Нові коментарі

Нова тема   Відповісти
Автор Повідомлення
ZoomBie 
Новенький


З нами з: 15.10.10
Востаннє: 04.04.16
Повідомлень: 4

2011-08-17 17:55  
Все про Міккі Мауса (Сезон 1, серії: 8-10, 15, 23-25) / Mickey Mouse Works (Season 1, episodes: 8-10, 15, 23-25) (1999-2000)



Жанр: анімація, дитячий, пригоди
Країна: США



Кіностудія / кінокомпанія: Walt Disney
Режисер: Tony Craig, Roberts Gannaway
Ролі озвучують: Уейн Оллуін / Wayne Allwine, Тоні Анселмо / Tony Anselmo, Бііл Фармер / Bill Farmer, та інші.
Сюжет:
Mickey Mouse Works - мультсеріал, що складається з котроткометражних мультфільмів про пригоди Міккі Мауса та його друзів.


Тривалість: 1 серія: ~20:00 (цілком серій: 7)

Перелік серій:
Episode 08
Cartoons:
Mickey to the Rescue : Staircase
Pluto Runs Away
Daisy Visits Minnie
How to Ride a Bicycle
Episode 09
Cartoons:
Goofy's Extreme Sports : Rock Climbing
Hansel and Gretel
Donald on Ice
Mickey's Mechanical House
Episode 10
Cartoons:
Pluto Gets the Paper : Street Cleaner
Donald's Dinner Date
Maestro Minnie : Brahm's Lullabye
Hydro Squirter
Mickey's Piano Lesson
Episode 15
Cartoons:
Daisy's Road Trip
Goofy's Big Kitty
Relaxing with Von Drake
Episode 23
Cartoons:
Donald's Fish Fry
Presto Pluto
Mickey's Cabin
Episode 24
Cartoons:
Pluto Gets the Paper : Vending Machine
Mickey's Answering Service
Pluto's Magic Paws
Mickey's Big Break
Episode 25
Cartoons:
Bird Brained Donald
Donald's Pool
How to Be a Gentleman
Якість:
Відео:
кодек: (MPEG-4)
розмір кадру: 702 х 528
бітрейт: ~2000 кб/с

Аудіо:
мова: українська
переклад: багатоголосий закадровий
кодек: 2.0
бітрейт: 192 кб/с
MediaInfo
Episode 08
General
Complete name : G:\Mickey Mouse Works\Все про Міккі Мауса (Ukraine)\Mickey Mouse Works - Episode 08 (toloka.to) [rip by dvorsky].avi
Format : AVI
Format/Info : Audio Video Interleave
File size : 345 MiB
Duration : 21mn 57s
Overall bit rate : 2 197 Kbps
Writing library : VirtualDub build 32817/release

Video
ID : 0
Format : MPEG-4 Visual
Format profile : Advanced [email protected]
Format settings, BVOP : 2
Format settings, QPel : No
Format settings, GMC : No warppoints
Format settings, Matrix : Default (H.263)
Muxing mode : Packed bitstream
Codec ID :
Codec ID/Hint :
Duration : 21mn 57s
Bit rate : 1 996 Kbps
Width : 702 pixels
Height : 528 pixels
Display aspect ratio : 4:3
Frame rate : 25.000 fps
Color space : YUV
Chroma subsampling : 4:2:0
Bit depth : 8 bits
Scan type : Progressive
Compression mode : Lossy
Bits/(Pixel*Frame) : 0.215
Stream size : 313 MiB (91%)
Writing library : 1.2.1 (UTC 2008-12-04)

Audio
ID : 1
Format : AC-3
Format/Info : Audio Coding 3
Mode extension : CM (complete main)
Codec ID : 2000
Duration : 21mn 57s
Bit rate mode : Constant
Bit rate : 192 Kbps
Channel(s) : 2 channels
Channel positions : Front: L R
Sampling rate : 48.0 KHz
Bit depth : 16 bits
Compression mode : Lossy
Stream size : 30.1 MiB (9%)
Alignment : Aligned on interleaves
Interleave, duration : 40 ms (1.00 video frame)
Interleave, preload duration : 512 ms

Episode 09
General
Complete name : G:\Mickey Mouse Works\Все про Міккі Мауса (Ukraine)\Mickey Mouse Works - Episode 09 (toloka.to) [rip by dvorsky].avi
Format : AVI
Format/Info : Audio Video Interleave
File size : 345 MiB
Duration : 21mn 57s
Overall bit rate : 2 198 Kbps
Writing library : VirtualDub build 32817/release

Video
ID : 0
Format : MPEG-4 Visual
Format profile : Advanced [email protected]
Format settings, BVOP : 2
Format settings, QPel : No
Format settings, GMC : No warppoints
Format settings, Matrix : Default (H.263)
Muxing mode : Packed bitstream
Codec ID :
Codec ID/Hint :
Duration : 21mn 57s
Bit rate : 1 996 Kbps
Width : 702 pixels
Height : 528 pixels
Display aspect ratio : 4:3
Frame rate : 25.000 fps
Color space : YUV
Chroma subsampling : 4:2:0
Bit depth : 8 bits
Scan type : Progressive
Compression mode : Lossy
Bits/(Pixel*Frame) : 0.215
Stream size : 314 MiB (91%)
Writing library : 1.2.1 (UTC 2008-12-04)

Audio
ID : 1
Format : AC-3
Format/Info : Audio Coding 3
Mode extension : CM (complete main)
Codec ID : 2000
Duration : 21mn 57s
Bit rate mode : Constant
Bit rate : 192 Kbps
Channel(s) : 2 channels
Channel positions : Front: L R
Sampling rate : 48.0 KHz
Bit depth : 16 bits
Compression mode : Lossy
Stream size : 30.2 MiB (9%)
Alignment : Aligned on interleaves
Interleave, duration : 40 ms (1.00 video frame)
Interleave, preload duration : 512 ms

Episode 10
General
Complete name : G:\Mickey Mouse Works\Все про Міккі Мауса (Ukraine)\Mickey Mouse Works - Episode 10 (toloka.to) [rip by dvorsky].avi
Format : AVI
Format/Info : Audio Video Interleave
File size : 346 MiB
Duration : 22mn 0s
Overall bit rate : 2 198 Kbps
Writing library : VirtualDub build 32817/release

Video
ID : 0
Format : MPEG-4 Visual
Format profile : Advanced [email protected]
Format settings, BVOP : 2
Format settings, QPel : No
Format settings, GMC : No warppoints
Format settings, Matrix : Default (H.263)
Muxing mode : Packed bitstream
Codec ID :
Codec ID/Hint :
Duration : 22mn 0s
Bit rate : 1 996 Kbps
Width : 702 pixels
Height : 528 pixels
Display aspect ratio : 4:3
Frame rate : 25.000 fps
Color space : YUV
Chroma subsampling : 4:2:0
Bit depth : 8 bits
Scan type : Progressive
Compression mode : Lossy
Bits/(Pixel*Frame) : 0.215
Stream size : 314 MiB (91%)
Writing library : 1.2.1 (UTC 2008-12-04)

Audio
ID : 1
Format : AC-3
Format/Info : Audio Coding 3
Mode extension : CM (complete main)
Codec ID : 2000
Duration : 22mn 0s
Bit rate mode : Constant
Bit rate : 192 Kbps
Channel(s) : 2 channels
Channel positions : Front: L R
Sampling rate : 48.0 KHz
Bit depth : 16 bits
Compression mode : Lossy
Stream size : 30.2 MiB (9%)
Alignment : Aligned on interleaves
Interleave, duration : 40 ms (1.00 video frame)
Interleave, preload duration : 512 ms

Episode 15
General
Complete name : G:\Mickey Mouse Works\Все про Міккі Мауса (Ukraine)\Mickey Mouse Works - Episode 15 (toloka.to) [rip by dvorsky].avi
Format : AVI
Format/Info : Audio Video Interleave
File size : 346 MiB
Duration : 21mn 58s
Overall bit rate : 2 197 Kbps
Writing library : VirtualDub build 32817/release

Video
ID : 0
Format : MPEG-4 Visual
Format profile : Advanced [email protected]
Format settings, BVOP : 2
Format settings, QPel : No
Format settings, GMC : No warppoints
Format settings, Matrix : Default (H.263)
Muxing mode : Packed bitstream
Codec ID :
Codec ID/Hint :
Duration : 21mn 58s
Bit rate : 1 996 Kbps
Width : 702 pixels
Height : 528 pixels
Display aspect ratio : 4:3
Frame rate : 25.000 fps
Color space : YUV
Chroma subsampling : 4:2:0
Bit depth : 8 bits
Scan type : Progressive
Compression mode : Lossy
Bits/(Pixel*Frame) : 0.215
Stream size : 314 MiB (91%)
Writing library : 1.2.1 (UTC 2008-12-04)

Audio
ID : 1
Format : AC-3
Format/Info : Audio Coding 3
Mode extension : CM (complete main)
Codec ID : 2000
Duration : 21mn 58s
Bit rate mode : Constant
Bit rate : 192 Kbps
Channel(s) : 2 channels
Channel positions : Front: L R
Sampling rate : 48.0 KHz
Bit depth : 16 bits
Compression mode : Lossy
Stream size : 30.2 MiB (9%)
Alignment : Aligned on interleaves
Interleave, duration : 40 ms (1.00 video frame)
Interleave, preload duration : 512 ms

Episode 23
General
Complete name : G:\Mickey Mouse Works\Все про Міккі Мауса (Ukraine)\Mickey Mouse Works - Episode 23 (toloka.to) [rip by dvorsky].avi
Format : AVI
Format/Info : Audio Video Interleave
File size : 345 MiB
Duration : 21mn 58s
Overall bit rate : 2 198 Kbps
Writing library : VirtualDub build 32817/release

Video
ID : 0
Format : MPEG-4 Visual
Format profile : Advanced [email protected]
Format settings, BVOP : 2
Format settings, QPel : No
Format settings, GMC : No warppoints
Format settings, Matrix : Default (H.263)
Muxing mode : Packed bitstream
Codec ID :
Codec ID/Hint :
Duration : 21mn 58s
Bit rate : 1 996 Kbps
Width : 702 pixels
Height : 528 pixels
Display aspect ratio : 4:3
Frame rate : 25.000 fps
Color space : YUV
Chroma subsampling : 4:2:0
Bit depth : 8 bits
Scan type : Progressive
Compression mode : Lossy
Bits/(Pixel*Frame) : 0.215
Stream size : 314 MiB (91%)
Writing library : 1.2.1 (UTC 2008-12-04)

Audio
ID : 1
Format : AC-3
Format/Info : Audio Coding 3
Mode extension : CM (complete main)
Codec ID : 2000
Duration : 21mn 58s
Bit rate mode : Constant
Bit rate : 192 Kbps
Channel(s) : 2 channels
Channel positions : Front: L R
Sampling rate : 48.0 KHz
Bit depth : 16 bits
Compression mode : Lossy
Stream size : 30.2 MiB (9%)
Alignment : Aligned on interleaves
Interleave, duration : 40 ms (1.00 video frame)
Interleave, preload duration : 512 ms

Episode 24
General
Complete name : G:\Mickey Mouse Works\Все про Міккі Мауса (Ukraine)\Mickey Mouse Works - Episode 24 (toloka.to) [rip by dvorsky].avi
Format : AVI
Format/Info : Audio Video Interleave
File size : 345 MiB
Duration : 21mn 58s
Overall bit rate : 2 197 Kbps
Writing library : VirtualDub build 32817/release

Video
ID : 0
Format : MPEG-4 Visual
Format profile : Advanced [email protected]
Format settings, BVOP : 2
Format settings, QPel : No
Format settings, GMC : No warppoints
Format settings, Matrix : Default (H.263)
Muxing mode : Packed bitstream
Codec ID :
Codec ID/Hint :
Duration : 21mn 58s
Bit rate : 1 996 Kbps
Width : 702 pixels
Height : 528 pixels
Display aspect ratio : 4:3
Frame rate : 25.000 fps
Color space : YUV
Chroma subsampling : 4:2:0
Bit depth : 8 bits
Scan type : Progressive
Compression mode : Lossy
Bits/(Pixel*Frame) : 0.215
Stream size : 314 MiB (91%)
Writing library : 1.2.1 (UTC 2008-12-04)

Audio
ID : 1
Format : AC-3
Format/Info : Audio Coding 3
Mode extension : CM (complete main)
Codec ID : 2000
Duration : 21mn 57s
Bit rate mode : Constant
Bit rate : 192 Kbps
Channel(s) : 2 channels
Channel positions : Front: L R
Sampling rate : 48.0 KHz
Bit depth : 16 bits
Compression mode : Lossy
Stream size : 30.2 MiB (9%)
Alignment : Aligned on interleaves
Interleave, duration : 40 ms (1.00 video frame)
Interleave, preload duration : 512 ms

Episode 25
General
Complete name : G:\Mickey Mouse Works\Все про Міккі Мауса (Ukraine)\Mickey Mouse Works - Episode 25 (toloka.to) [rip by dvorsky].avi
Format : AVI
Format/Info : Audio Video Interleave
File size : 346 MiB
Duration : 21mn 59s
Overall bit rate : 2 197 Kbps
Writing library : VirtualDub build 32817/release

Video
ID : 0
Format : MPEG-4 Visual
Format profile : Advanced [email protected]
Format settings, BVOP : 2
Format settings, QPel : No
Format settings, GMC : No warppoints
Format settings, Matrix : Default (H.263)
Muxing mode : Packed bitstream
Codec ID :
Codec ID/Hint :
Duration : 21mn 59s
Bit rate : 1 996 Kbps
Width : 702 pixels
Height : 528 pixels
Display aspect ratio : 4:3
Frame rate : 25.000 fps
Color space : YUV
Chroma subsampling : 4:2:0
Bit depth : 8 bits
Scan type : Progressive
Compression mode : Lossy
Bits/(Pixel*Frame) : 0.215
Stream size : 314 MiB (91%)
Writing library : 1.2.1 (UTC 2008-12-04)

Audio
ID : 1
Format : AC-3
Format/Info : Audio Coding 3
Mode extension : CM (complete main)
Codec ID : 2000
Duration : 21mn 58s
Bit rate mode : Constant
Bit rate : 192 Kbps
Channel(s) : 2 channels
Channel positions : Front: L R
Sampling rate : 48.0 KHz
Bit depth : 16 bits
Compression mode : Lossy
Stream size : 30.2 MiB (9%)
Alignment : Aligned on interleaves
Interleave, duration : 40 ms (1.00 video frame)
Interleave, preload duration : 512 ms
Переклад і озвучення виконано:


Скріншоти:


Запис з SAT: dvorsky

Особиста оцінка: 10 - без зайвих вагань рекомендую всім!

Якщо у Вас є в наявності ріпи решти серій даного мультсеріалу - прохання написати проце в даній темі, або мені в ПП!!!


Срібний реліз (на рейтинг впливає 50% завантаженого)
 Трекер:    Зареєстрований   

Завантажити / скачати мультфільм українською



відео для новачків



 Зареєстрований:   2012-05-07 00:47
 Розмір:   2.36 GB 
 Оцінка мультсеріалу:   9.7/10 (Голосів: 14)
   
ZoomBie 
Новенький


З нами з: 15.10.10
Востаннє: 04.04.16
Повідомлень: 4

2012-05-07 00:27  
Ґуґлоперекладач написано:
Торрент перезаліт!!!
Змінено кількість серій на правильне (за версією польської Вікіпедії) + кількість серій в ріпах на всіх мовах в інтернеті міститься лише 25.
2 інших серії не зустрічав ні на одній мові, але на англійській Вікіпедії вказані в них ті короткометражки, які містяться в інших серіях, і не сумніваюся, якщо їх взагалі не існує.

Змінено назви файлів. За бажанням, прохання перейменувати...
Подробиці про зміну
"Mickey Mouse Works - Episode 16 (toloka.to) [rip by dvorsky].avi" на "Mickey Mouse Works - Episode 15 (toloka.to) [rip by dvorsky].avi"
"Mickey Mouse Works - Episode 25 (toloka.to) [rip by dvorsky].avi" на "Mickey Mouse Works - Episode 23 (toloka.to) [rip by dvorsky].avi"
"Mickey Mouse Works - Episode 26 (toloka.to) [rip by dvorsky].avi" на "Mickey Mouse Works - Episode 24 (toloka.to) [rip by dvorsky].avi"
"Mickey Mouse Works - Episode 27 (toloka.to) [rip by dvorsky].avi" на "Mickey Mouse Works - Episode 25 (toloka.to) [rip by dvorsky].avi"
І перекачати торрент.

Всім, хто писав мультсеріал в 2010-му році - огоромная прохання відгукнутися!!!

AlanAlan 
Почесний гуртомівець


З нами з: 29.06.08
Востаннє: 06.02.16
Повідомлень: 1377

2012-05-07 05:53  
ZoomBie, прошу писати українською мовою. Це обов'язкове правило нашого сайту.
ZoomBie 
Новенький


З нами з: 15.10.10
Востаннє: 04.04.16
Повідомлень: 4

2012-05-07 20:45  
del.
Sensetivity 
VIP


З нами з: 03.05.11
Востаннє: 03.01.13
Повідомлень: 2019

2012-05-07 20:55  
ZoomBie
Тоді вибачте за бан =)

AlanAlan 
Почесний гуртомівець


З нами з: 29.06.08
Востаннє: 06.02.16
Повідомлень: 1377

2012-05-07 20:57  
ZoomBie, є ґуґлоперекладач.
Правила обов'язкові для всіх. Невиконання тягне за собою попередження, потім бан.

ZoomBie 
Новенький


З нами з: 15.10.10
Востаннє: 04.04.16
Повідомлень: 4

2012-05-08 17:37  
AlanAlan написано:
ZoomBie, є ґуґлоперекладач.

Ґуґлоперекладач написано:
Так піде?

AlanAlan 
Почесний гуртомівець


З нами з: 29.06.08
Востаннє: 06.02.16
Повідомлень: 1377

2012-05-08 17:53  
ZoomBie написано:
Так піде?

Так. Піде.

1312 
Новенький


З нами з: 06.11.12
Востаннє: 16.07.16
Повідомлень: 1

2012-11-29 12:26  
Закачка не розпочинається. Хтось станьте на роздачу,будь-ласка, дитина хоче дуже цей мульт.
котермак 
Свій


З нами з: 16.08.11
Востаннє: 04.12.16
Повідомлень: 70

2014-08-17 17:57  
Дякую!
alexia26 
Новенький


З нами з: 09.09.14
Востаннє: 13.10.16
Повідомлень: 1

2014-09-09 19:27  
Станьте на роздачу,будь-ласка, дуже хочу закачати дитині саме українською мовою цей мульт. Щиро дякую.
Napalmaria 
Новенький


З нами з: 04.10.12
Востаннє: 16.10.16
Повідомлень: 2

2014-12-09 15:42  
Будь ласка, станьте на роздачу - дуже хочу скачати українською дані мульти
Заздалегідь вдячна

Yarchik 
Новенький


З нами з: 14.06.09
Востаннє: 05.12.16
Повідомлень: 1

2014-12-13 17:24  
Дитина заставляє вмикати їй москальського Міккі Мауса.
Знайшов українського тут, пише, що 12 людей на роздачі - а нічого не закачується Sad (1)
Якщо можна - піддайте швидкості, однотолочники Happy

Ваш часовий пояс: GMT + 2 Години

Нова тема   Відповісти