Завантажити та скачати торренти українською


М. Скорик - Опера "Мойсей" (2001) [FLAC] | Classic

Нові коментарі

Нова тема   Відповісти
Автор Повідомлення
Влодко G 
Свій


З нами з: 12.01.08
Востаннє: 09.12.16
Повідомлень: 121

2008-12-22 17:53  
М. Скорик - Опера "Мойсей" (2001) [FLAC] | Classic



Стиль: Classic
Країна, місто: Україна, Львів
Сайти: Офіційний сайт
Видавець: Pro-W Ukraine
Виконавці:
Музика: Мирослав Скорик
Лібрето: Богдан Стельмах, Мирослав Скорик
Диригент: Михайло Дутчак
Солісти, хор та оркестр Львівського державного театру опери та балету ім. Соломії Крушельницької.
Пісні:
    CD1
    1. Пролог "Народе мій"
    Перша Дія
    2. Сцена "Світанок"
    3. Монолог Мойсея
    4. Балада Мойсея
    5. Сцена ("Мосціпане Мойсею")
    6. Ухвала Датана
    7. Монолог Мойсея
    8. Поклоніння Ваалу
    Загальна тривалість звучання: 52:03

    CD2
    Друга Дія
    1. Монолог Мойсея
    2. Сцена Азазель і голоси
    3. Хор ("Де Мойсей")
    4. Арія Йохаведди
    5. Сцена (Мойсей, Йохаведда, Азазель)
    6. Буря
    7. Голос Єгови
    8. Хор та Поет
    9. Фінал
    10. Епілог
    Загальна тривалість звучання: 44:54

Тривалість: 1:36:57

Аудіо-кодек: FLAC

Бітрейт: 1411 кб/с

Додаткова інформація:
В червні 2001 року відбулася важлива подія: Україну відвідав Папа Римський Іоан Павло ІІ. До цього візиту Львівський державний академічний театр опери та балету імені С. Крушельницької підготував гучну прем'єру: оперу за біблейськими мотивами "Мойсей". Композитор - М. Скорик, лібрето - Б. Стельмах та М. Скорик, диригент - М. Дутчак, керівник проекту - Тадей Едер.

Запис цього твору благословив та підтримав сам Святіший Отець Іоан Павло ІІ.


Якщо Ви справді бажаєте підтримати українське - після прослуховування, якщо музика вам сподобалась, придбайте ліцензійний диск. Підтримаймо вітчизняних виконавців!
Звіт:
CD 1:Exact Audio Copy V0.99 prebeta 4 from 23. January 2008

Звіт EAC про видобування, котре виконане 22. грудня 2008, 17:26

Невідомий Виконавець / Невідома Назва

Дисковод: HL-DT-STDVDRAM GSA-T20N Adapter: 1 ID: 0

Режим читання : Точний
Використати точний потік : Так
Вимкнути аудіо кеш : Ні
Застосувати мітки C2 : Ні

Комбіноване зміщення читання/запису : 0
Екстрачитання областей Lead-in і Lead-out : Ні
Заповнення пропущених семплів тишею : Так
Видалення блоків з тишею на початку і кінці : Ні
При вирахуванні CRC використовувались нульові семпли : Ні
Використаний інтерфейс : 'Рідний' Win32-інтерфейс для Win NT/2000
Поводження з проміжками : Не знайдено, отже приєднано до попереднього трека

Застосований вихідний формат : Кодер Користувача
Обраний бітрейт : 768 kBit/s
Якість : Високий
Додати тег ID3 : Ні
Компресор командного рядка : C:\Program Files\Exact Audio Copy\Flac\flac.exe
Додаткові параметри командного рядка : -6 -V -T "ARTIST=%a" -T "TITLE=%t" -T "ALBUM=%g" -T "DATE=%y" -T "TRACKNUMBER=%n" -T "GENRE=%m" -T "COMMENT=%e" %s -o %d

TOC видобутого CD

Трек | Старт | Довжина | Початковий сектор | Кінцевий сектор
------------------------------------------------------------------
1 | 0:00.00 | 10:18.07 | 0 | 46356
2 | 10:18.07 | 41:45.00 | 46357 | 234231

Трек 1

Ім'я файлу F:\Завантаження\Track01.wav

Піковий рівень 95.2 %
Якість трека 100.0 %
CRC тесту A46BFAD3
CRC копії A46BFAD3
Копіювання... OK

Трек 2

Ім'я файлу F:\Завантаження\Track02.wav

Піковий рівень 95.0 %
Якість трека 100.0 %
CRC тесту 5D9E812E
CRC копії 5D9E812E
Копіювання... OK

Помилки не траплялися

Кінець звіту
CD 2:Exact Audio Copy V0.99 prebeta 4 from 23. January 2008

Звіт EAC про видобування, котре виконане 22. грудня 2008, 16:55

Невідомий Виконавець / Невідома Назва

Дисковод: HL-DT-STDVDRAM GSA-T20N Adapter: 1 ID: 0

Режим читання : Точний
Використати точний потік : Так
Вимкнути аудіо кеш : Ні
Застосувати мітки C2 : Ні

Комбіноване зміщення читання/запису : 0
Екстрачитання областей Lead-in і Lead-out : Ні
Заповнення пропущених семплів тишею : Так
Видалення блоків з тишею на початку і кінці : Ні
При вирахуванні CRC використовувались нульові семпли : Ні
Використаний інтерфейс : 'Рідний' Win32-інтерфейс для Win NT/2000
Поводження з проміжками : Не знайдено, отже приєднано до попереднього трека

Застосований вихідний формат : Кодер Користувача
Обраний бітрейт : 768 kBit/s
Якість : Високий
Додати тег ID3 : Ні
Компресор командного рядка : C:\Program Files\Exact Audio Copy\Flac\flac.exe
Додаткові параметри командного рядка : -6 -V -T "ARTIST=%a" -T "TITLE=%t" -T "ALBUM=%g" -T "DATE=%y" -T "TRACKNUMBER=%n" -T "GENRE=%m" -T "COMMENT=%e" %s -o %d

TOC видобутого CD

Трек | Старт | Довжина | Початковий сектор | Кінцевий сектор
------------------------------------------------------------------
1 | 0:00.00 | 43:07.13 | 0 | 194037
2 | 43:07.13 | 1:47.05 | 194038 | 202067

Трек 1

Ім'я файлу F:\Завантаження\Track01.wav

Піковий рівень 95.0 %
Якість трека 100.0 %
CRC тесту 83632125
CRC копії 83632125
Копіювання... OK

Трек 2

Ім'я файлу F:\Завантаження\Track02.wav

Піковий рівень 94.7 %
Якість трека 100.0 %
CRC тесту 63BDEB67
CRC копії 63BDEB67
Копіювання... OK

Помилки не траплялися

Кінець звіту


Срібний реліз (на рейтинг впливає 50% завантаженого)
 Трекер:    Зареєстрований   

Завантажити / скачати українську музику



відео для новачків



 Зареєстрований:   2008-12-22 17:53
 Розмір:   465 MB 
 Оцінка музики:   8.7/10 (Голосів: 15)
   
6c6c6 
Поважний учасник


З нами з: 30.09.07
Востаннє: 30.09.09
Повідомлень: 3674

2008-12-22 23:45  
Влодко G написано:
ClassicClassic

Один класик зайвий. Звіти краще б під спойлер в описі розмістити.

Skiff 
музика
музика


З нами з: 12.11.07
Востаннє: 09.12.16
Повідомлень: 3051

2008-12-23 00:03  
Влодко G написано:
[Clasic]М. Скорик.....
а ось тут здається однієї s не вистачає
Влодко G написано:

Тривалість: 1:36:57
в цьому місці бажано вказати формат (FLAC) типу Аудіо-кодек: FLAC
Бітрейт: 1411 кб/с

6c6c6 
Поважний учасник


З нами з: 30.09.07
Востаннє: 30.09.09
Повідомлень: 3674

2008-12-23 00:06  
Ще одне зауваження. Панове, не забувайте про пробіли, без них назва релізу виглядає коцурбато.
Влодко G 
Свій


З нами з: 12.01.08
Востаннє: 09.12.16
Повідомлень: 121

2008-12-23 01:19  
6c6c6
Skiff
Дякую за консультації.Все підправив.

yasia22 
Новенький


З нами з: 16.09.08
Востаннє: 20.11.16
Повідомлень: 4

2008-12-23 05:42  
Дякую за реліз.
На жаль, cue файли важко зрозуміти. Чи можна викласти докладнішу інформацію про тривалість кожного треку (монологу, арії, сцени тощо)?
Дякую.

Влодко G 
Свій


З нами з: 12.01.08
Востаннє: 09.12.16
Повідомлень: 121

2008-12-23 10:07  
На кожному диску записано по два аудіофайли:
1диск: Пролог-10:18 і 1-ша дія-41:45
2диск: 2-га дія-43:07 і епілог-1:47.

Ваш часовий пояс: GMT + 2 Години

Нова тема   Відповісти