Завантажити та скачати торренти українською


Перехрестя Міллера / Miller's Crossing (1990) 720p Ukr/Eng | Sub Ukr/Eng

Нові коментарі

Нова тема   Відповісти
Автор Повідомлення
Віктор 
Відео Гуртом - субтитрування
Відео Гуртом - субтитрування


З нами з: 09.01.10
Востаннє: 08.12.16
Повідомлень: 8663

2011-08-15 15:14  
Перехрестя Міллера / Miller's Crossing (1990) 720p Ukr/Eng | Sub Ukr/Eng


Перехрестя Міллера / Miller's Crossing (1990) 720p Ukr/Eng | Sub Ukr/Eng

«Nothing is what it seems at Miller's Crossing»


Жанр: кримінальний, драма, трилер
Країна: США



Кіностудія / кінокомпанія: Circle Films, Twentieth Century Fox Film Corporation
Режисери: Ітан Коен, Джоель Коен (Ethan Coen, Joel Coen)
Композитор: Картер Барвелл (Carter Burwell)
Актори: Ґебріель Бірн (Gabriel Byrne), Марсія Ґай Гарден (Marcia Gay Harden), Джон Туртурро (John Turturro), Джон Політо (Jon Polito), Д. Е. Фрімен (J.E. Freeman), Альберт Фінні (Albert Finney), Майк Старр (Mike Starr), Стів Бушемі (Steve Buscemi), Френсіс МакДорманд (Frances McDormand) та інші.

Сюжет:
Америка тридцятих років. Час сухого закону. Злочинні клани в будь-який момент готові розпочати криваву війну за контроль над поставками нелеґального алкоголю. Том Реґан - розумний і авторитетний злочинець, колишній радник одного з мафіозних босів. Він свого роду анти-герой, абсолютно аморальна, егоїстична і підла людина.
Але, тим не менш, своїми неабиякими здібностями залишатися живим після найкрутіших сутичок, викликає щирі симпатії. Він вміло балансує між двома готовими в будь-який момент зірватися бандами, намагаючись утримати їх від початку війни. Але довго так тривати не може, і у Тома виникають такі проблеми, від вирішення яких залежатимуть долі дуже багатьох людей ...
Нагороди, номінацій, цікаві факти

Сан-Себастьян, 1990 рік
Переможець (1):

* Срібна раковина за найкращу роботу режисера (Джоель Коен)

Номінації (1):
* Золота раковина


Цікаві факти про фільм
* Ніаґарський водоспад, куди Том саркастично пропонує відправиться Верне, прихопивши з собою Берні, на початку ХХ-го століття був традиційним місцем американців для весільної подорожі.
* З перегляду досить складно зрозуміти - в якому саме місті за сценарієм відбувається дія фільму. Назва газети, вивіска клубу (Шенандоа клуб) і т.п. мало прояснюють ситуацію. Фактично ж зйомки відбувалися в Новому Орлеані, в якому Коени знайшли цілі квартали, які зберегли архітектуру зразка 1929 року.
* В епізоді, де Том входить в жіночу вбиральню, всіх дам (крім Вірні) зіграли переодягнені в жіночий одяг чоловіки, в тому числі Альберт Фінні (Лео).
* Епізодичну роль у фільмі зіграв відомий режисер Сем Реймі, давній друг братів Коенів. Також епізодичну роль секретарки мера (в титрах не зазначено) у фільмі зіграла дружина Джоеля Коена Френсіс Макдорменд, яка знялася в багатьох фільмах Коенів.
* Бюджет: $14 000 000
MediaInfo

Код:
General
Unique ID                        : 240078028452212441253808152477233758466 (0xB49D58AD93684B34B4B50DCC5552C102)
Complete name                    : D:\HURTOM\Miller's Crossing (1990) [Ukr, Eng] 720p [Hurtom].mkv
Format                           : Matroska
Format version                   : Version 2
File size                        : 7.19 GiB
Duration                         : 1h 54mn
Overall bit rate                 : 8 958 Kbps
Movie name                       : Miller's Crossing (1990) [Ukr, Eng] 720p [Hurtom]
Encoded date                     : UTC 2012-03-30 14:21:41
Writing application              : mkvmerge v5.0.1 ('Es ist Sommer') built on Oct  9 2011 11:55:43
Writing library                  : libebml v1.2.2 + libmatroska v1.3.0

Video
ID                               : 1
Format                           : AVC
Format/Info                      : Advanced Video Codec
Format profile                   : [email protected]
Format settings, CABAC           : Yes
Format settings, ReFrames        : 4 frames
Codec ID                         : V_MPEG4/ISO/AVC
Duration                         : 1h 54mn
Bit rate                         : 7 000 Kbps
Width                            : 1 280 pixels
Height                           : 694 pixels
Display aspect ratio             : 16:9
Frame rate                       : 23.976 fps
Color space                      : YUV
Chroma subsampling               : 4:2:0
Bit depth                        : 8 bits
Scan type                        : Progressive
Bits/(Pixel*Frame)               : 0.329
Stream size                      : 5.47 GiB (76%)
Title                            : Miller's Crossing (1990) [Ukr, Eng] 720p [Hurtom]
Writing library                  : core 115 r1995 c1e60b9
Encoding settings                : cabac=1 / ref=3 / deblock=1:-3:-3 / analyse=0x3:0x133 / me=umh / subme=10 / psy=1 / psy_rd=1.00:0.00 / mixed_ref=1 / me_range=32 / chroma_me=1 / trellis=2 / 8x8dct=1 / cqm=0 / deadzone=21,11 / fast_pskip=0 / chroma_qp_offset=-2 / threads=18 / sliced_threads=0 / nr=0 / decimate=0 / interlaced=0 / bluray_compat=0 / constrained_intra=0 / bframes=7 / b_pyramid=2 / b_adapt=2 / b_bias=0 / direct=3 / weightb=1 / open_gop=0 / weightp=2 / keyint=250 / keyint_min=23 / scenecut=40 / intra_refresh=0 / rc_lookahead=40 / rc=2pass / mbtree=0 / bitrate=7000 / ratetol=1.0 / qcomp=0.65 / qpmin=0 / qpmax=40 / qpstep=4 / cplxblur=20.0 / qblur=0.5 / vbv_maxrate=50000 / vbv_bufsize=50000 / nal_hrd=none / ip_ratio=1.25 / pb_ratio=1.25 / aq=1:0.65
Language                         : English
Default                          : No
Forced                           : No

Audio #1
ID                               : 2
Format                           : AC-3
Format/Info                      : Audio Coding 3
Mode extension                   : CM (complete main)
Codec ID                         : A_AC3
Duration                         : 1h 54mn
Bit rate mode                    : Constant
Bit rate                         : 448 Kbps
Channel(s)                       : 6 channels
Channel positions                : Front: L C R, Side: L R, LFE
Sampling rate                    : 48.0 KHz
Bit depth                        : 16 bits
Compression mode                 : Lossy
Stream size                      : 368 MiB (5%)
Title                            : 5.1 @ 448 kbps - двоголосий закадровий запис звуку з телеканалу ТЕТ
Language                         : Ukrainian
Default                          : Yes
Forced                           : No

Audio #2
ID                               : 3
Format                           :
Format/Info                      : Digital Theater Systems
Codec ID                         : A_DTS
Duration                         : 1h 54mn
Bit rate mode                    : Constant
Bit rate                         : 1 510 Kbps
Channel(s)                       : 6 channels
Channel positions                : Front: L C R, Side: L R, LFE
Sampling rate                    : 48.0 KHz
Bit depth                        : 24 bits
Compression mode                 : Lossy
Delay relative to video          : 11ms
Stream size                      : 1.21 GiB (17%)
Title                            : 5.1 @ 1536 kbps
Language                         : English
Default                          : No
Forced                           : No

Text #1
ID                               : 4
Format                           : UTF-8
Codec ID                         : S_TEXT/UTF8
Codec ID/Info                    : UTF-8 Plain Text
Language                         : Ukrainian
Default                          : No
Forced                           : No

Text #2
ID                               : 5
Format                           : UTF-8
Codec ID                         : S_TEXT/UTF8
Codec ID/Info                    : UTF-8 Plain Text
Language                         : English
Default                          : No
Forced                           : No

Menu
00:00:00.000                     : en:00:00:00.000
00:06:52.829                     : en:00:06:52.829
00:08:36.933                     : en:00:08:36.933
00:10:35.677                     : en:00:10:35.677
00:16:58.476                     : en:00:16:58.476
00:21:36.253                     : en:00:21:36.253
00:24:41.438                     : en:00:24:41.438
00:27:41.869                     : en:00:27:41.869
00:35:09.482                     : en:00:35:09.482
00:38:07.243                     : en:00:38:07.243
00:42:06.357                     : en:00:42:06.357
00:47:10.327                     : en:00:47:10.327
00:48:48.134                     : en:00:48:48.134
00:53:34.378                     : en:00:53:34.378
00:56:53.410                     : en:00:56:53.410
01:03:52.037                     : en:01:03:52.037
01:07:23.206                     : en:01:07:23.206
01:10:35.231                     : en:01:10:35.231
01:16:54.360                     : en:01:16:54.360
01:21:44.525                     : en:01:21:44.525
01:23:20.537                     : en:01:23:20.537
01:24:58.260                     : en:01:24:58.260
01:30:16.995                     : en:01:30:16.995
01:33:01.367                     : en:01:33:01.367
01:36:48.720                     : en:01:36:48.720
01:39:30.047                     : en:01:39:30.047
01:46:36.599                     : en:01:46:36.599
01:50:59.903                     : en:01:50:59.903
Релізи та інформація про озвучення/дублювання

720p Ukr/Eng | Sub Ukr/Eng (7.19 GB) - двоголосий закадровий запис з телеканалу ТЕТ
Ukr/Eng | Sub Eng (2.18 GB) - двоголосий закадровий запис з телеканалу ТЕТ

Ролі озвучили: Олег Лепенець і Ніна Касторф?
Тривалість: 01:54:51
Якість: 720p (DON)
Відео:
кодек:
розмір кадру: 1280x694
бітрейт: 7000 кб/с

Аудіо # 1:
мова: українська
переклад: двоголосий закадровий запис з телеканалу ТЕТ | ролі озвучили: Олег Лепенець і Ніна Касторф?
кодек: 5.1
бітрейт: 448 кб/с

Аудіо # 2:
мова: англійська
переклад: ориґінал
кодек: 5.1
бітрейт: 1536 кб/с

Субтитри # 1:
мова: українська
тип: програмні (м'які)
формат: *.srt
джерело субтитрів: Blu-Ray, редагування w2958l

Субтитри # 2:
мова: англійська
тип: програмні (м'які)
формат: *.srt

Скріншоти:





За синхронізацію укр. доріжки подяка _oles,
за запис звуку з тб подяка МАКАРОННІК


Джерело:
Особиста оцінка: 8


Срібний реліз (на рейтинг впливає 50% завантаженого)
 Трекер:    Зареєстрований   

Завантажити / скачати фільм українською



відео для новачків



 Зареєстрований:   2012-03-30 16:46
 Розмір:   7.19 GB 
 Оцінка фільму:   8.5/10 (Голосів: 26)
   
Інші релізи
destiny 
Свій


З нами з: 09.04.10
Востаннє: 09.11.13
Повідомлень: 92

2011-08-16 11:49  
Жидівська сага. Дивився, на триллер не тягне, рівно як і на шедевр, драма також слабка з нього, але актори непогані.
ZoCore 
Новенький


З нами з: 21.03.09
Востаннє: 11.03.15
Повідомлень: 17

2011-09-11 20:57  
Мені просто неймовірно сподобався цей фільм! Сюжет дуже заплутаний і багатогранний, але зрозумілий. Характери героїв дуже чіткі, цікаві і особливі. Неперевершена гра акторів. Приємна музика. На відміну від destiny я вважаю "Перехрестя Міллера" шедевром.
bot 
робот


З нами з: 30.09.07
Востаннє: 26.05.05
Повідомлень: 16030

2012-03-30 16:47  
Тему перенесено з Фільми до форуму Фільми в HD


w2958l

mmmman 
Частий відвідувач


З нами з: 01.08.09
Востаннє: 07.12.16
Повідомлень: 43

2012-06-27 17:19  
Цілком приєднуюся до слів ZoCore
Фільм проковтнув легко і з захопленням.

Ваш часовий пояс: GMT + 2 Години

Нова тема   Відповісти