Завантажити та скачати торренти українською


Мандри - Світ (2011) [FLAC] | Folk Rock

Нові коментарі

Нова тема   Відповісти
Автор Повідомлення
civ 
VIP


З нами з: 16.02.11
Востаннє: 02.12.16
Повідомлень: 428

2011-08-10 21:40  
Мандри - Світ (2011) [FLAC] | Folk Rock

Стиль: Folk Rock
Країна, місто: Україна, Київ
Сайти: Офіційний сайт
Видавець: Наш Формат
Виконавці:
Сергій Фоменко (Фома) - вокал, гітара
Леонід Бєлєй (Льоня) - акордеон
Сергій Чегодаєв (Чиж) - бас-гітара
Андрій Занько - барабани
Пісні:
    01. Сонце
    02. Jun Jah La le
    03. Три пляшка пива
    04. Будемо разом
    05. Ніч
    06. Спогади
    07. Зірки
    08. Світ
    09. Лелеки
    10. Проміння

Тривалість: 00:47:56
Мова: українська
Аудіо-кодек: FLAC
Бітрейт: 979 кб/с
Джерело: власний ріп
Тип ріпу: image+CUE+обкладинки
EAC log

Exact Audio Copy V1.0 beta 2 from 29. April 2011

EAC extraction logfile from 5. August 2011, 20:39

Мандри / Світ

Used drive : Optiarc DVD RW AD-7530B Adapter: 0 ID: 0

Read mode : Secure
Utilize accurate stream : Yes
Defeat audio cache : Yes
Make use of C2 pointers : No

Read offset correction : 6
Overread into Lead-In and Lead-Out : No
Fill up missing offset samples with silence : Yes
Delete leading and trailing silent blocks : No
Null samples used in CRC calculations : Yes
Used interface : Native Win32 interface for Win NT & 2000

Used output format : Internal WAV Routines
Sample format : 44.100 Hz; 16 Bit; Stereo

TOC of the extracted CD

Track | Start | Length | Start sector | End sector
---------------------------------------------------------
1 | 0:00.00 | 4:58.70 | 0 | 22419
2 | 4:58.70 | 4:48.68 | 22420 | 44087
3 | 9:47.63 | 4:39.38 | 44088 | 65050
4 | 14:27.26 | 3:58.45 | 65051 | 82945
5 | 18:25.71 | 4:58.39 | 82946 | 105334
6 | 23:24.35 | 3:01.34 | 105335 | 118943
7 | 26:25.69 | 6:03.32 | 118944 | 146200
8 | 32:29.26 | 4:40.36 | 146201 | 167236
9 | 37:09.62 | 5:17.32 | 167237 | 191043
10 | 42:27.19 | 5:29.13 | 191044 | 215731

Range status and errors

Selected range

Filename C:\Music\Мандри - Світ (2011)\Мандри - Світ.wav

Peak level 94.4 %
Extraction speed 4.4 X
Range quality 99.9 %
Copy CRC FD78FB64
Copy OK

No errors occurred

AccurateRip summary

Track 1 not present in database
Track 2 not present in database
Track 3 not present in database
Track 4 not present in database
Track 5 not present in database
Track 6 not present in database
Track 7 not present in database
Track 8 not present in database
Track 9 not present in database
Track 10 not present in database

None of the tracks are present in the AccurateRip database

End of status report
fooCDtect

fooCDtect - foobar2000 + auCDtect, baralgin.

auCDtect: CD records authenticity detector, version 0.8.2
Copyright (c) 2004 Oleg Berngardt. All rights reserved.
Copyright (c) 2004 Alexander Djourik. All rights reserved.

mode: 0

=======================================================
Track: 01 - Мандри - Сонце
Quality: CDDA, 99%
=======================================================
Track: 02 - Мандри - Jun Jah La Le
Quality: CDDA, 100%
=======================================================
Track: 03 - Мандри - Три пляшки пива
Quality: CDDA, 100%
=======================================================
Track: 04 - Мандри - Будемо разом
Quality: CDDA, 99%
=======================================================
Track: 05 - Мандри - Ніч
Quality: CDDA, 100%
=======================================================
Track: 06 - Мандри - Спогади
Quality: CDDA, 100%
=======================================================
Track: 07 - Мандри - Зірки
Quality: CDDA, 100%
=======================================================
Track: 08 - Мандри - Світ
Quality: CDDA, 100%
=======================================================
Track: 09 - Мандри - Лелеки
Quality: CDDA, 100%
=======================================================
Track: 10 - Мандри - Проміння
Quality: CDDA, 100%
=======================================================
Додаткова інформація:
Новий альбом групи “МАНДРИ” – результат творчих пошуків та трирічної роботи музикантів у студії, відкриває нову сторінку в концептуальній та стилістичній естетиці колективу. Основний настрій альбому можна назвати лірико-драматичним, а сам альбом – концептуальним, експериментальним та неочікуваним. Для багатьох поціновувачів творчост…і… групи буде цікаво відкрити для себе абсолютно нові “МАНДРИ”. В запису альбому, окрім постійних учасників групи, брали участь в якості запрошених музикантів багато яскравих творчих особистостей із світу української музики: вокалістка гурту «Тримба» та «Дзиґа» – Інна Прокопчук,
лідер хард-рок гурту «WHITE»- Олег Шевченко, аранжувальник та композитор – Олег Харітонов.

Цей альбом – дорослий погляд на світ, в якому ми живемо…




Якщо Ви справді бажаєте підтримати українське - після прослуховування, якщо музика вам сподобалась, придбайте ліцензійний диск. Підтримаймо вітчизняних виконавців!
НАШ ФОРМАТ


Срібний реліз (на рейтинг впливає 50% завантаженого)
 Трекер:    Зареєстрований   

Завантажити / скачати українську музику



відео для новачків



 Зареєстрований:   2011-08-10 21:40
 Розмір:   341 MB 
 Оцінка музики:   9.7/10 (Голосів: 18)
   
Ваш часовий пояс: GMT + 2 Години

Нова тема   Відповісти