Завантажити та скачати торренти українською


Острів / The Island (2005) 720p 2xUkr/Eng

Нові коментарі

Нова тема   Відповісти
Автор Повідомлення
Sando7 
Відео Гуртом - запис з ТБ
Відео Гуртом - запис з ТБ


З нами з: 04.05.09
Востаннє: 11.12.16
Повідомлень: 844

2011-08-10 06:21  
Острів / The Island (2005) 720p 2xUkr/Eng



Жанр: Трилер, Драма, Фантастика
Країна: США



Кіностудія / кінокомпанія: DreamWorks SKG
Режисер: Майкл Бей / Michael Bay
Актори: Еван МакҐрегор / Ewan McGregor, Скарлетт Йоханссон / Scarlett Johansson, Джимон Хонсу / Djimon Hounsou, Стів Бушемі / Steve Buscemi, Шон Бін / Sean Bean, Майкл Кларк Данкан / Michael Clarke Duncan...

Сюжет:
Лінкольн Шість-Ехо - житель на вигляд утопічного, але такого, що охороняється поселення середини XXI століття. Як і всі мешканці цього, ретельно контрольованого простору, Лінкольн сподівається опинитися серед тих, кого відправлять на «Острів» - нібито останнє незабруднене місце на планеті. Але дуже скоро Лінкольн виявляє, що абсолютно все, що стосується його існування, - брехня. І він, і вся решта жителів поселення - ніхто інші, як клони, чиє єдине призначення забезпечувати своїх людей-двійників «запасними частинами». Розуміючи, що рано чи пізно наступить і його черга, Лінкольн разом з подругою по нещастю Джордан Два-Дельта вирішують тікати. Переслідувані організацією, яка раніше давала їм притулок, Лінкольн і Джордан рятуються втечею заради збереження власних життів, щоб в буквальному розумінні зустрітися з своїми творцями.


Тривалість: 02:16:04
Якість:
Відео:
кодек:
розмір кадру: 1280x534
бітрейт: ~9053 кб/с

Аудіо # 1:
мова: українська
переклад: професійний дубльований
кодек: 5.1
бітрейт: 448 кб/с

Аудіо # 2:
мова: українська
переклад: професійний дубльований
кодек: 2.0
бітрейт: 192 кб/с

Аудіо # 3:
мова: українська
переклад: багатоголосий закадровий
кодек: 2.0
бітрейт: 192 кб/с

Аудіо # 4:
мова: англійська
переклад: оригінал
кодек:
бітрейт: 1536 кб/с

Аудіо # 4:
мова: англійська
переклад: оригінал
кодек: 2.0
бітрейт: 192 кб/с |Коментар режисера Michael Bay

Переклад і озвучення виконано:
Українською мовою дубльовано Творчим об'єднанням "Дія" за сприяння AdiozProduction studio на замовлення телекомпанії
Режисер дубляжу: Георгій Гавриленко
Переклад та адаптація: Андрій Безребрий
Інженер звукозапису: Дмитро Красюк
Звукорежисер: Дмитро Мялковський
Ролі дублювали: Еван МакҐреґор - Андрій Самінін, Скарлет Йоганссон - Олена Узлюк, Володимир Терещук, Джимон Хонсу - Михайло Жонін, Ольга Радчук, Максим Кондратюк, Анатолій Пашнін, Наталя Романько, Євген Пашин, другорядні ролі - Олег Лепенець, Юлія Перенчук, Павло Скороходько, Георгій Гавриленко
MediaInfo

Complete name : D:\The Island (2005) 720р [2xUKR] [Hurtom].mkv
Format : Matroska
Format version : Version 1
File size : 11.2 GiB
Duration : 2h 16mn
Overall bit rate : 11.8 Mbps
Movie name : The Island (2005) - Release for HDCLUB
Encoded date : UTC 2014-02-07 10:49:45
Writing application : mkvmerge v2.4.1 ('Use Me') built on Dec 5 2008 18:30:05
Writing library : libebml v0.7.7 + libmatroska v0.8.1

Video
ID : 1
Format : AVC
Format/Info : Advanced Video Codec
Format profile : [email protected]
Format settings, CABAC : Yes
Format settings, ReFrames : 10 frames
Codec ID : V_MPEG4/ISO/AVC
Duration : 2h 16mn
Bit rate : 9 006 Kbps
Width : 1 280 pixels
Height : 534 pixels
Display aspect ratio : 2.40:1
Frame rate mode : Constant
Frame rate : 23.976 fps
Color space : YUV
Chroma subsampling : 4:2:0
Bit depth : 8 bits
Scan type : Progressive
Bits/(Pixel*Frame) : 0.550
Stream size : 8.56 GiB (76%)
Title : The Island (2005) - Release for HDCLUB
Writing library : core 116 r2019 9cc407d
Encoding settings : cabac=1 / ref=10 / deblock=1:-3:-3 / analyse=0x3:0x113 / me=umh / subme=9 / psy=1 / psy_rd=1.10:0.00 / mixed_ref=1 / me_range=16 / chroma_me=1 / trellis=2 / 8x8dct=1 / cqm=0 / deadzone=21,11 / fast_pskip=0 / chroma_qp_offset=-2 / threads=6 / sliced_threads=0 / nr=0 / decimate=0 / interlaced=0 / bluray_compat=0 / constrained_intra=0 / bframes=7 / b_pyramid=2 / b_adapt=2 / b_bias=0 / direct=3 / weightb=1 / open_gop=0 / weightp=2 / keyint=250 / keyint_min=23 / scenecut=40 / intra_refresh=0 / rc=crf / mbtree=0 / crf=18.4 / qcomp=0.60 / qpmin=0 / qpmax=69 / qpstep=4 / ip_ratio=1.40 / pb_ratio=1.30 / aq=1:0.75 / zones=400,3800,q=19
Language : English
Default : Yes
Forced : No

Audio #1
ID : 2
Format : AC-3
Format/Info : Audio Coding 3
Mode extension : CM (complete main)
Format settings, Endianness : Big
Codec ID : A_AC3
Duration : 2h 16mn
Bit rate mode : Constant
Bit rate : 448 Kbps
Channel count : 6 channels
Channel positions : Front: L C R, Side: L R, LFE
Sampling rate : 48.0 KHz
Bit depth : 16 bits
Compression mode : Lossy
Delay relative to video : 4s 705ms
Stream size : 436 MiB (4%)
Language : Ukrainian
Default : Yes
Forced : No

Audio #2
ID : 3
Format : AC-3
Format/Info : Audio Coding 3
Mode extension : CM (complete main)
Format settings, Endianness : Big
Codec ID : A_AC3
Duration : 2h 16mn
Bit rate mode : Constant
Bit rate : 192 Kbps
Channel count : 2 channels
Channel positions : Front: L R
Sampling rate : 48.0 KHz
Bit depth : 16 bits
Compression mode : Lossy
Stream size : 187 MiB (2%)
Title : 2.0ch 192 kbps - Дубляж, Новий канал
Language : Ukrainian
Default : No
Forced : No

Audio #3
ID : 4
Format : AC-3
Format/Info : Audio Coding 3
Mode extension : CM (complete main)
Format settings, Endianness : Big
Codec ID : A_AC3
Duration : 2h 16mn
Bit rate mode : Constant
Bit rate : 192 Kbps
Channel count : 2 channels
Channel positions : Front: L R
Sampling rate : 48.0 KHz
Bit depth : 16 bits
Compression mode : Lossy
Stream size : 187 MiB (2%)
Title : Ukr_ICTV
Language : Ukrainian
Default : No
Forced : No

Audio #4
ID : 5
Format :
Format/Info : Digital Theater Systems
Mode : 16
Format settings, Endianness : Big
Codec ID : A_DTS
Duration : 2h 16mn
Bit rate mode : Constant
Bit rate : 1 509 Kbps
Channel count : 6 channels
Channel positions : Front: L C R, Side: L R, LFE
Sampling rate : 48.0 KHz
Bit depth : 24 bits
Compression mode : Lossy
Delay relative to video : 11ms
Stream size : 1.43 GiB (13%)
Title : 5.1ch 1510 kbps
Language : English
Default : No
Forced : No

Audio #5
ID : 6
Format : AC-3
Format/Info : Audio Coding 3
Mode extension : CM (complete main)
Format settings, Endianness : Big
Codec ID : A_AC3
Duration : 2h 16mn
Bit rate mode : Constant
Bit rate : 192 Kbps
Channel count : 2 channels
Channel positions : Front: L R
Sampling rate : 48.0 KHz
Bit depth : 16 bits
Compression mode : Lossy
Stream size : 187 MiB (2%)
Title : 2.0ch 192 kbps - Commentary
Language : English
Default : No
Forced : No

Menu
00:00:00.000 : :1. The Lottery
00:10:36.594 : :2. Tranquility Center
00:16:36.829 : :3. Back To Work
00:20:32.606 : :4. Tech Services
00:27:17.761 : :5. Nightlife
00:32:15.391 : :6. On The Loose
00:41:35.993 : :7. Contamination Alert
00:50:43.290 : :8. Albert Laurent
00:56:33.390 : :9. Aces & Spades
01:05:39.226 : :10. Train Station
01:11:58.939 : :11. Information Directory
01:18:32.207 : :12. Tough Day
01:28:36.436 : :13. Your Insurance Policy
01:34:40.925 : :14. Thought I Was Taller
01:40:26.729 : :15. Worth Every Penny
01:46:44.564 : :16. Recall
01:53:10.325 : :17. Too Bad
01:58:47.995 : :18. A Disturbance
02:03:24.063 : :19. My Name Is Lincoln
02:09:53.744 : :20. End Credits
Скріншоти:



Джерело : &


 Трекер:    Зареєстрований   

Завантажити / скачати фільм українською



відео для новачків



 Зареєстрований:   2014-02-08 01:32
 Розмір:   11.19 GB 
 Оцінка фільму:   9.5/10 (Голосів: 29)
   
Jatx_11 
Відео Гуртом - фільмокрай
Відео Гуртом - фільмокрай


З нами з: 20.04.11
Востаннє: 23.10.16
Повідомлень: 700

2011-08-10 13:39  
sando7 написано:
720p

sando7 написано:
бітрейт: ~9053 кб/с

sando7 написано:
11.01 GB


Wink (1)

Віктор 
Відео Гуртом - субтитрування
Відео Гуртом - субтитрування


З нами з: 09.01.10
Востаннє: 11.12.16
Повідомлень: 8664

2011-08-10 14:14  
Jatx_11 і що? Гарний і якісний ріп. Дякую за реліз, та інфу про дублювання))
До sando7
sando7 написано:
з ріпу викинуто все расєйськає та додано доріжку 5.1 від
а ось так писати не варто.
трилер - з однією л

Jatx_11 
Відео Гуртом - фільмокрай
Відео Гуртом - фільмокрай


З нами з: 20.04.11
Востаннє: 23.10.16
Повідомлень: 700

2011-08-10 14:21  
w2958l
Я нічого не кажу, просто смайлик. Ось і тобі

Vampire-like teeth

TARIK111 
Свій


З нами з: 22.05.09
Востаннє: 10.12.16
Повідомлень: 117

2011-08-12 00:08  
шумів в доріжці немає?
SuperContik 
VIP


З нами з: 25.02.08
Востаннє: 13.09.16
Повідомлень: 332

2012-06-03 10:08  
хтось зробить бо в DVDRіp якість звуку не дуже радує Wink (2)
SHEVA1991 
Поважний учасник


З нами з: 29.11.12
Востаннє: 03.12.16
Повідомлень: 200

2013-04-20 08:25  
Дякую за реліз чудового фільму та ще й в дубляжі!!!!
Vadik222 
Новенький


З нами з: 20.09.13
Востаннє: 03.04.16
Повідомлень: 2

2013-09-27 21:00  
Агов! А чи можете викласти українську доріжку окремо з тривалістю: 02:16:04 Буду дуже вдячний.
Sando7 
Відео Гуртом - запис з ТБ
Відео Гуртом - запис з ТБ


З нами з: 04.05.09
Востаннє: 11.12.16
Повідомлень: 844

2014-02-08 04:24  
В реліз додано озвучення ICTV
OzzyZig 
Новенький


З нами з: 09.01.13
Востаннє: 04.12.16
Повідомлень: 5

2016-11-18 21:43  
Хлопці, висить закачка вже пару тижнів і не можу докачати. Лише половина.
Пробував юТоррент і куБітторрент програми, але закачка не йде.
В чому справа? Хто зможе допомогти.

Ваш часовий пояс: GMT + 2 Години

Нова тема   Відповісти