Завантажити та скачати торренти українською


Виховання Арізони / Виховання Аризони / Raising Arizona (1987) 720p Ukr/Eng | Sub Ukr/Eng

Нові коментарі

Нова тема   Відповісти
Автор Повідомлення
Віктор 
Відео Гуртом - субтитрування
Відео Гуртом - субтитрування


З нами з: 09.01.10
Востаннє: 05.12.16
Повідомлень: 8663

2011-08-08 18:05  
Виховання Арізони / Виховання Аризони / Raising Arizona (1987) 720p Ukr/Eng | Sub Ukr/Eng


Альтернативні постери



Жанр: Комедія, пригодницький
Країна: США.


Кіностудія / кінокомпанія: Circle Films
Режисери: Ітан Коен, Джоель Коен (Ethan Coen, Joel Coen)
Композитор: Картер Барвелл (Carter Burwell)
Актори: Ніколас Кейдж (Nicolas Cage), Голлі Гантер (Holly Hunter), Джон Ґудмен (John Goodman), Вілльям Форсайт (William Forsythe), Сем МакМюррей (Sam McMurray), Френсіс МакДорманд (Frances McDormand) та інші.

Сюжет:
Гай був дрібним грабіжником. Ед служила в поліції. Вони зустрічалися постійно — після того, як його в черговий раз ловили і везли в буцегарню. А потім Гай і Ед одружилися. Це дивне подружжя було цілком щасливе, але у них не було дітей, і тоді вони вирішили викрасти немовля, щоб було кого виховувати...
Чи знали ви, що....

• П'ятьох близнюків в картині грали п'ятнадцять дітей. Одну дитину довелося зі зйомок прибрати, тому що вона «не вчасно» навчилася ходити.
• Початкові титри фільму тривають 11 хвилин.
• Кевін Костнер відмовився від головної ролі.
• Роль героїні Голлі Гантер була придумана братами Коенами спеціально для цієї актриси.
MediaInfo

Код:

General
Unique ID                        : 228503073294583622401438940539324962027 (0xABE81753EB4F0F759B1D2E12BF5F94EB)
Complete name                    : D:\ 720p\Raising Arizona (1987) [Ukr, Eng] 720p [Hurtom].mkv
Format                           : Matroska
File size                        : 5.38 GiB
Duration                         : 1h 34mn
Overall bit rate                 : 8 184 Kbps
Encoded date                     : UTC 2011-08-08 16:50:19
Writing application              : mkvmerge v4.7.0 ('Just Like You Imagined') зібрано Apr 21 2011 01:13:14
Writing library                  : libebml v1.2.0 + libmatroska v1.1.0

Video
ID                               : 1
Format                           : AVC
Format/Info                      : Advanced Video Codec
Format profile                   : [email protected]
Format settings, CABAC           : Yes
Format settings, ReFrames        : 9 frames
Codec ID                         : V_MPEG4/ISO/AVC
Duration                         : 1h 34mn
Bit rate                         : 6 098 Kbps
Width                            : 1 280 pixels
Height                           : 694 pixels
Display aspect ratio             : 16:9
Frame rate                       : 23.976 fps
Color space                      : YUV
Chroma subsampling               : 4:2:0
Bit depth                        : 8 bits
Scan type                        : Progressive
Bits/(Pixel*Frame)               : 0.286
Stream size                      : 3.90 GiB (73%)
Title                            : HURTOM & CHD
Writing library                  : core 102 r1666 d058f37
Encoding settings                : cabac=1 / ref=9 / deblock=1:-3:-3 / analyse=0x3:0x113 / me=umh / subme=9 / psy=1 / psy_rd=1.05:0.10 / mixed_ref=1 / me_range=32 / chroma_me=1 / trellis=2 / 8x8dct=1 / cqm=2 / deadzone=21,11 / fast_pskip=0 / chroma_qp_offset=-2 / threads=6 / sliced_threads=0 / nr=0 / decimate=1 / interlaced=0 / constrained_intra=0 / bframes=6 / b_pyramid=2 / b_adapt=2 / b_bias=0 / direct=3 / weightb=1 / open_gop=0 / weightp=2 / keyint=250 / keyint_min=25 / scenecut=40 / intra_refresh=0 / rc_lookahead=40 / rc=2pass / mbtree=1 / bitrate=6098 / ratetol=1.0 / qcomp=0.60 / qpmin=10 / qpmax=51 / qpstep=4 / cplxblur=20.0 / qblur=0.5 / vbv_maxrate=50000 / vbv_bufsize=50000 / ip_ratio=1.40 / aq=1:0.80 / nal_hrd=none
Language                         : English

Audio #1
ID                               : 2
Format                           : AC-3
Format/Info                      : Audio Coding 3
Mode extension                   : CM (complete main)
Codec ID                         : A_AC3
Duration                         : 1h 34mn
Bit rate mode                    : Constant
Bit rate                         : 384 Kbps
Channel(s)                       : 6 channels
Channel positions                : Front: L C R, Side: L R, LFE
Sampling rate                    : 48.0 KHz
Bit depth                        : 16 bits
Compression mode                 : Lossy
Stream size                      : 258 MiB (5%)
Title                            : 5.1 @ 384 kbps  - Двоголосий закадровий | Студія 1+1 | Зведення звуку robotron005
Language                         : Ukrainian

Audio #2
ID                               : 3
Format                           : AC-3
Format/Info                      : Audio Coding 3
Mode extension                   : CM (complete main)
Codec ID                         : A_AC3
Duration                         : 1h 34mn
Bit rate mode                    : Constant
Bit rate                         : 192 Kbps
Channel(s)                       : 2 channels
Channel positions                : Front: L R
Sampling rate                    : 48.0 KHz
Bit depth                        : 16 bits
Compression mode                 : Lossy
Stream size                      : 129 MiB (2%)
Title                            : 2.0 @ 192 kbps  - Двоголосий закадровий | Студія 1+1 | Зведення звуку robotron005
Language                         : Ukrainian

Audio #3
ID                               : 4
Format                           :
Format/Info                      : Digital Theater Systems
Codec ID                         : A_DTS
Duration                         : 1h 34mn
Bit rate mode                    : Constant
Bit rate                         : 1 510 Kbps
Channel(s)                       : 6 channels
Channel positions                : Front: L C R, Side: L R, LFE
Sampling rate                    : 48.0 KHz
Bit depth                        : 24 bits
Compression mode                 : Lossy
Stream size                      : 1 016 MiB (18%)
Title                            : -HD.MA Core_1509kbps
Language                         : English

Text #1
ID                               : 5
Format                           : UTF-8
Codec ID                         : S_TEXT/UTF8
Codec ID/Info                    : UTF-8 Plain Text
Title                            : Переклад: w2958l
Language                         : Ukrainian

Text #2
ID                               : 6
Format                           : UTF-8
Codec ID                         : S_TEXT/UTF8
Codec ID/Info                    : UTF-8 Plain Text
Title                            : Субтитри з ліцензійного DVD обробка - karvai0
Language                         : Ukrainian

Text #3
ID                               : 7
Format                           : UTF-8
Codec ID                         : S_TEXT/UTF8
Codec ID/Info                    : UTF-8 Plain Text
Title                            : SDH
Language                         : English
Релізи та інформація про озвучення/дублювання

720p Ukr/Eng | Sub Ukr/Eng (5.38 GB) — двоголосий закадровий Студія «1+1»
Ukr/Eng | Sub 2xUkr/Eng (1.7 GB) — двоголосий закадровий Студія «1+1»

Ролі озвучили: Ярослав Чорненький і Олена Узлюк
Тривалість: 01:34:06
Якість: 720p (ріп від: CHD)
Відео:
кодек:
розмір кадру: 1280 х 694
бітрейт: 6098 кб/с

Аудіо # 1:
мова: українська
переклад: двоголосий закадровий Студія «1+1» | Ролі озвучили: Ярослав Чорненький і Олена Узлюк
кодек: 5.1
бітрейт: 384 кб/с

Аудіо # 2:
мова: українська
переклад: двоголосий закадровий Студія «1+1» | Ролі озвучили: Ярослав Чорненький і Олена Узлюк
кодек: 2.0
бітрейт: 192 кб/с

Аудіо # 3:
мова: англійська
переклад: ориґінал
кодек: 5.1
бітрейт: 1536 кб/с

Субтитри 1-2 :
мова: українська
тип: програмні (м'які)
формат: *.srt
переклад: (№1) - w2948l, (№2) - з ліцензійного DVD

Субтитри 3:
мова: англійська
тип: програмні (м'які)
формат: *.srt * (SDH)

Скріншоти:




За запис української доріжки подяка Merdiff-y
За зведення українських доріжок 5.1 і 2.0 подяка robotron005
За українські субтитри №2 і синхронізацію субтитрів №1 подяка karvai0
За українізацію постерів подяка bilenkuyboy


Джерело:
Особиста оцінка: 9 - давно не бачив настільки якісне кіно


Срібний реліз (на рейтинг впливає 50% завантаженого)
 Трекер:    Зареєстрований   

Завантажити / скачати фільм українською



відео для новачків



 Зареєстрований:   2011-08-08 19:07
 Розмір:   5.38 GB 
 Оцінка фільму:   7.8/10 (Голосів: 9)
   
bot 
робот


З нами з: 30.09.07
Востаннє: 26.05.05
Повідомлень: 15998

2011-08-08 19:06  
Тему перенесено з Анонси релізів від Відео Гуртом до форуму Художні фільми в HD


w2958l

leroykendall 
Модератор HD


З нами з: 03.01.11
Востаннє: 20.11.16
Повідомлень: 749

2011-08-08 19:55  
Фільм братів Коенів з Кейджем в головній ролі. Клас.
Очікуємо на перевірку :-)

lpershyi 
Попереджень: 2
Попереджень: 2 


З нами з: 04.01.11
Востаннє: 30.11.16
Повідомлень: 2622

2011-08-09 00:29  
leroykendall написано:
Очікуємо на перевірку
навіщо і так можна викачувати й дивитись Happy
leroykendall 
Модератор HD


З нами з: 03.01.11
Востаннє: 20.11.16
Повідомлень: 749

2011-08-09 07:06  
lpershyi написано:
навіщо і так можна викачувати й дивитись

Модераторам видніше.
+ може знижку дадуть :-)

4erkov 
Відео Гуртом - запис з ТБ
Відео Гуртом - запис з ТБ


З нами з: 09.10.10
Востаннє: 04.12.16
Повідомлень: 1846

2011-08-09 07:26  
Це в мене одного в описі глюк зі шрифтом? (Він більший в рази).
gagaboy 
VIP


З нами з: 22.12.10
Востаннє: 05.12.16
Повідомлень: 337

2011-08-09 10:44  
4erkov
та ні, все норм)

Andick 
Модератор відео та координатор поширення


З нами з: 03.11.09
Востаннє: 03.12.16
Повідомлень: 1499

2011-08-09 14:14  
w2958l написано:
кодек:

і позакривай всі теги, бо тех дані погано виглядають
якщо все норм і ти незнаєш чого так, то спробуй перенести медіаінфо вниз Happy

Віктор 
Відео Гуртом - субтитрування
Відео Гуртом - субтитрування


З нами з: 09.01.10
Востаннє: 05.12.16
Повідомлень: 8663

2011-08-09 16:43  
Andick написано:

З піратської бухти звідки зтягнув ріп, написано , так само на хдклабі пишуть

Andick написано:
якщо все норм і ти незнаєш чого так, то спробуй перенести медіаінфо вниз Happy


Що саме не так? У мене все гаразд.
Скріншот

Andick 
Модератор відео та координатор поширення


З нами з: 03.11.09
Востаннє: 03.12.16
Повідомлень: 1499

2011-08-09 17:32  
w2958l написано:
З піратської бухти звідки зтягнув ріп, написано , так само на хдклабі пишуть
а у нас прийнято писати Happy
w2958l написано:
Що саме не так? У мене все гаразд.
хм, дивно
скріншот


robotron005 
Відео Гуртом - фільмокрай
Відео Гуртом - фільмокрай


З нами з: 29.01.09
Востаннє: 05.12.16
Повідомлень: 2985

2011-08-09 17:40  
Також все нормально відображає.
Віктор 
Відео Гуртом - субтитрування
Відео Гуртом - субтитрування


З нами з: 09.01.10
Востаннє: 05.12.16
Повідомлень: 8663

2011-08-09 17:43  
Andick написано:
а у нас прийнято писати

Най буде так))

imonko 
Відео Гуртом - фільмокрай
Відео Гуртом - фільмокрай


З нами з: 20.07.08
Востаннє: 31.10.16
Повідомлень: 7309

2012-01-16 20:37  
дай му трету, щось віддача ледве йде
Ваш часовий пояс: GMT + 2 Години

Нова тема   Відповісти