Завантажити та скачати торренти українською


Дружина мандрівника у часі / The Time Traveler's Wife (2009) 1080p 2xUkr/Eng

Нові коментарі

Нова тема   Відповісти
Автор Повідомлення
Arsenfpu 
Відео Гуртом - фільмокрай
Відео Гуртом - фільмокрай


З нами з: 30.04.09
Востаннє: 04.12.16
Повідомлень: 1582

2011-08-04 20:12  
Дружина мандрівника у часі / The Time Traveler's Wife (2009) 1080p 2xUkr/Eng



Жанр: фантастика, драма, мелодрама
Країна: США



Кіностудія / кінокомпанія: Industry Entertainment / Warner Bros.
Режисер: Роберт Швентке
Актори: Ерік Бана, Рейчел МакАдамс, Рон Лівінгстон, Стівен Тоболовські, Арліс Ховард

Сюжет:
В основі фільму однойменний роман Одрі Ніффенегджер, який розповідає про бібліотекаря Чікаго, що володіє дивним даром в стані стресу переміщатися в часі. В процесі одного такого «стрибка» він знайомиться з жінкою своєї мрії. Проблема полягає в тому, що вік героя залишається тим самим не залежно від того, в який час він потрапляє, а вік його обраниці змінюється ...


Тривалість: 01:47:25
Якість:
Відео:
кодек:
розмір кадру: 1920 х 800
частота кадрів: 23.976 кадр/сек
бітрейт: 11 Мбіт/сек

Аудіо 1:
мова: українська
переклад: двоголосий закадровий Новий канал
кодек: 5.1
бітрейт: 448 кб/с

Аудіо 2:
мова: українська
переклад: двоголосий закадровий (Дмитро Бузинський і Валерія Зайцева)
кодек: 5.1
бітрейт: 384 кб/с

Аудіо 3:
мова: англійська
переклад: оригінал
кодек: 5.1
бітрейт: 448 кб/с
MediaInfo

General

Format : Matroska
Format version : Version 2
File size : 8.91 GiB
Duration : 1h 47mn
Overall bit rate : 11.9 Mbps
Encoded date : UTC 2013-05-24 15:06:20
Writing application : mkvmerge v4.0.0 ('The Stars were mine') збірка від Jun 6 2010 16:18:42
Writing library : libebml v1.0.0 + libmatroska v1.0.0

Video
ID : 1
Format : AVC
Format/Info : Advanced Video Codec
Format profile : [email protected]
Format settings, CABAC : Yes
Format settings, ReFrames : 4 frames
Codec ID : V_MPEG4/ISO/AVC
Duration : 1h 47mn
Bit rate : 10.6 Mbps
Width : 1 920 pixels
Height : 800 pixels
Display aspect ratio : 2.40:1
Frame rate : 23.976 fps
Color space : YUV
Chroma subsampling : 4:2:0
Bit depth : 8 bits
Scan type : Progressive
Bits/(Pixel*Frame) : 0.288
Stream size : 7.78 GiB (87%)
Writing library : core 98 r1649 20cbe10
Encoding settings : cabac=1 / ref=4 / deblock=1:-3:-3 / analyse=0x3:0x113 / me=umh / subme=9 / psy=1 / psy_rd=0.80:0.80 / mixed_ref=1 / me_range=24 / chroma_me=1 / trellis=2 / 8x8dct=1 / cqm=0 / deadzone=21,11 / fast_pskip=0 / chroma_qp_offset=-2 / threads=8 / sliced_threads=0 / nr=0 / decimate=0 / interlaced=0 / constrained_intra=0 / bframes=5 / b_pyramid=2 / b_adapt=2 / b_bias=0 / direct=3 / weightb=1 / weightp=2 / keyint=250 / keyint_min=25 / scenecut=40 / intra_refresh=0 / rc=2pass / mbtree=0 / bitrate=10600 / ratetol=1.0 / qcomp=0.60 / qpmin=10 / qpmax=51 / qpstep=4 / cplxblur=20.0 / qblur=0.5 / ip_ratio=1.40 / pb_ratio=1.30 / aq=1:0.60

Audio #1
ID : 2
Format : AC-3
Format/Info : Audio Coding 3
Mode extension : CM (complete main)
Codec ID : A_AC3
Duration : 1h 47mn
Bit rate mode : Constant
Bit rate : 448 Kbps
Channel(s) : 6 channels
Channel positions : Front: L C R, Side: L R, LFE
Sampling rate : 48.0 KHz
Bit depth : 16 bits
Compression mode : Lossy
Stream size : 344 MiB (4%)
Language : Ukrainian

Audio #2
ID : 3
Format : AC-3
Format/Info : Audio Coding 3
Mode extension : CM (complete main)
Codec ID : A_AC3
Duration : 1h 47mn
Bit rate mode : Constant
Bit rate : 384 Kbps
Channel(s) : 6 channels
Channel positions : Front: L C R, Side: L R, LFE
Sampling rate : 48.0 KHz
Bit depth : 16 bits
Compression mode : Lossy
Stream size : 295 MiB (3%)
Language : Ukrainian

Audio #3
ID : 4
Format : AC-3
Format/Info : Audio Coding 3
Mode extension : CM (complete main)
Codec ID : A_AC3
Duration : 1h 47mn
Bit rate mode : Constant
Bit rate : 448 Kbps
Channel(s) : 6 channels
Channel positions : Front: L C R, Side: L R, LFE
Sampling rate : 48.0 KHz
Bit depth : 16 bits
Compression mode : Lossy
Stream size : 344 MiB (4%)
Language : English
Скріншоти


Джерело:
Особиста оцінка: 8 - мені сподобалося


 Трекер:    Зареєстрований   

Завантажити / скачати фільм українською



відео для новачків



 Зареєстрований:   2013-05-24 18:03
 Розмір:   8.91 GB 
 Оцінка фільму:   7.4/10 (Голосів: 17)
   
Hannover 
Свій


З нами з: 06.12.08
Востаннє: 04.12.16
Повідомлень: 61

2011-08-04 20:55  
Яке джерело української версії?
Arsenfpu 
Відео Гуртом - фільмокрай
Відео Гуртом - фільмокрай


З нами з: 30.04.09
Востаннє: 04.12.16
Повідомлень: 1582

2011-08-04 20:58  
Hannover
інтернет

Andick 
Модератор відео та координатор поширення


З нами з: 03.11.09
Востаннє: 03.12.16
Повідомлень: 1499

2011-08-05 13:25  
Arsenfpu написано:
кодек: AVC [email protected]
Arsenfpu написано:
кодек: 5.1
бітрейт: 384 кб/с
Sad (1)
тут доріжка краща http://toloka.to/t18082 , ну та вже
Arsenfpu написано:
Джерело: інше
та гуртом, озвучка екслюзивно для гуртом робилась, тому прохання додати до джерела логотип гуртом
Arsenfpu 
Відео Гуртом - фільмокрай
Відео Гуртом - фільмокрай


З нами з: 30.04.09
Востаннє: 04.12.16
Повідомлень: 1582

2011-08-05 13:35  
Andick
Зміни вніс, окрім аудіо.

skuline 
Свій


З нами з: 17.12.11
Востаннє: 03.12.16
Повідомлень: 114

2013-05-07 08:21  
Фільм непоганий ,можна раз подивитись .
Arsenfpu 
Відео Гуртом - фільмокрай
Відео Гуртом - фільмокрай


З нами з: 30.04.09
Востаннє: 04.12.16
Повідомлень: 1582

2013-05-24 18:11  
До уваги!
Торрент оновлено!

Додано доріжку від Нового каналу та оригінальне озвучення.
Вибачте за незручності!

ratbol 
Модератор HD


З нами з: 03.02.09
Востаннє: 01.12.16
Повідомлень: 1088

2013-05-25 15:09  
Дивно, а чому не додали українські субтитри?
Ваш часовий пояс: GMT + 2 Години

Нова тема   Відповісти