Завантажити та скачати торренти українською


Viter | Kings & Beggars - Diva Ruzha (Split) (2011) [FLAC] | Folk Metal

Нові коментарі

Нова тема   Відповісти
Автор Повідомлення
iwan wan 
VIP


З нами з: 01.10.09
Востаннє: 05.12.16
Повідомлень: 1760

2011-07-31 13:01  
Viter | Kings & Beggars - Diva Ruzha (Split) (2011) [FLAC] | Folk Metal



Стиль: Folk Metal
Країна, місто: Україна, Львів
Сайти:
Kings & Beggars : Офіційний сайт
Viter : Офіційний сайт
Видавець: CASUS BELLI MUSICA
Виконавці:
Viter Мицик - вокал, фольк інструменти
Олександр Яремчук - гітара
Володимир Дереча - гітара
Богдан Потопальський - бас, бек вокал
Святослав Адепт - фольк інструменти, клавішні, бек вокал
Андрій Гордійчук - ударні

Kings & Beggars Анна Васильченко - скрипка, фідель, блокфлейти, крумхорн, спів
Євген Гриневич - блокфлейти, спів
Максим Кернер - бузукі, турецький саз, мандоліна
Остап Сухоцький - перкусія
Пісні:
    1. VITER and KINGS & BEGGARS - “Diva Ruzha ”
    2. KINGS & BEGGARS - “Ai Vis Lo Lop”
    3. VITER and KINGS & BEGGARS - “Vänner och fränder”
    4. KINGS & BEGGARS and VITER - “Migla, Migla, Rasa, Rasa”
    5. VITER - “Chycheri”

Тривалість: 00:23:08
Мова: українська 1, 5, шведська 3, латвійська 4 та старо-французька 2
Аудіо-кодек: FLAC
Бітрейт: 948 кб/с
Джерело: Інший трекер
Додаткова інформація:
Всі пісні, що увійшли до диску у своїй основі є народними і на альбомі буде представлене їх нове бачення гуртами. Пісні виконані на 4-х мовах – українській, шведській, латвійській та старо-французькій. Музика до пісні “Migla, Migla, Rasa, Rasa” була написана гуртом SKYFORGER, слова народні.

Даний альбом є експериментальним із багатьох точок зору. На диску представлена спроба поєднати такі речі як карпатський фолк із шведською традиційною мелодикою, виконати фольклорну європейську музику на середньовічних інструментах із відповідним аранжуванням і в врешті-решт представити неочікуване звучання всіх цих композицій.

Робота над диском відбувалась у трьох студіях протягом осені 2010 - зими 2011.

У процесі запису не було використано жодних клавішних інструментів чи семплів – десятки різних (а якщо бути точним, то 35) традиційних та середньовічних інструментів були записані «вживу». Із їх повним списком можна буде ознайомитись у буклеті диску, де також вказано у яких піснях вони звучать.

У записі титульної речі гуртом VITER було використано виготовлені власноруч унікальні інструменти – трембіти із борщівника, що досягають 3 метри у довжину,але ширші у 3 рази від звичайних трембіт.

Над оформленням диску працював професійний художник Юрій Коваль, що є відомий за своїми портретними роботами гурту для перших двох дисків КРОДА.
log

Exact Audio Copy V0.99 prebeta 5 from 4. May 2009
Отчёт EAC об извлечении, выполненном 2. июня 2011, 20:52
Viter / Kings & Beggars / Diva Ruzha
Дисковод: _NEC DVD_RW ND-4571A Adapter: 0 ID: 0
Режим чтения : Достоверность
Использование точного потока : Да
Отключение кэша аудио : Да
Использование указателей C2 : Нет
Коррекция смещения при чтении : 48
Способность читать области Lead-in и Lead-out : Нет
Заполнение пропущенных сэмплов тишиной : Да
Удаление блоков с тишиной в начале и конце : Нет
При вычислениях CRC использовались нулевые сэмплы : Да
Интерфейс : Встроенный Win32-интерфейс для Win NT/2000
Выходной формат : Внутренние WAV-операции
Формат сэмплов : 44.100 Гц; 16 бит; стерео
TOC извлечённого CD
Трек | Старт | Длительность | Начальный сектор | Конечный сектор
---------------------------------------------------------------------
1 | 0:00.00 | 6:43.00 | 0 | 30224
2 | 6:43.00 | 4:24.12 | 30225 | 50036
3 | 11:07.12 | 4:59.25 | 50037 | 72486
4 | 16:06.37 | 4:02.06 | 72487 | 90642
5 | 20:08.43 | 3:00.49 | 90643 | 104191
Характеристики диапазона извлечения и сообщения об ошибках
Выбранный диапазон
Имя файла D:\Музыка\Viter Kings & Beggars - Viter Kings & Beggars.wav
Пиковый уровень 100.0 %
Качество диапазона 99.9 %
CRC копии C8A0F0EB
Копирование... OK
Ошибок не произошло
AccurateRip: сводка
Трек 1 нет в базе данных
Трек 2 нет в базе данных
Трек 3 нет в базе данных
Трек 4 нет в базе данных
Трек 5 нет в базе данных
Ни одного трека нет в базе AccurateRip
Конец отчёта
Якщо Ви справді бажаєте підтримати українське - після прослуховування, якщо музика вам сподобалась, придбайте ліцензійний диск. Підтримаймо вітчизняних виконавців!


Срібний реліз (на рейтинг впливає 50% завантаженого)
 Трекер:    Зареєстрований   

Завантажити / скачати українську музику



відео для новачків



 Зареєстрований:   2011-07-31 13:01
 Розмір:   157 MB 
 Оцінка музики:   10/10 (Голосів: 8)
   
Ваш часовий пояс: GMT + 2 Години

Нова тема   Відповісти