Завантажити та скачати торренти українською


Anjey Satori - Дискографія (14 альбомів) (2005-2009) [FLAC] | Meditative

Нові коментарі

Нова тема   Відповісти
Автор Повідомлення
ssTAss 
Модератор музики


З нами з: 05.07.08
Востаннє: 08.12.16
Повідомлень: 10947

2011-07-30 16:30  
Anjey Satori - Дискографія (14 альбомів) (2005-2009) [FLAC] | Meditative



Стиль: Meditative, New Age, Healing
Країна: Україна
Сайти: Офіційний сайт
Видавець: Anjey Satori
Альбоми:
    2005 Chakra Sounds


    Пісні:
      01 - Muladhara (8:33)
      02 - Svadishthana (8:03)
      03 - Manipura (8:05)
      04 - Anahata (7:28)
      05 - Vishuddha (7:35)
      06 - Adjna (8:27)
      07 - Sahasrara (7:16)
      08 - Return (9:49)

    Тривалість: 01:05:20
    Бітрейт: 635 кб/с
    Альбом спеціально написаний для того, щоб усвідомити, відчути і ввійти в контакт зі своїми чакрами. Чакри - це енергетичні центри, які перерозподіляють енергію між енерготілами, і відповідають своєму конкретному енерготілу і його взаємозв'язкам з органами і системами тіла фізичного. Чакри мають величезний вплив на фізіологію, здоров'я, поведінку і світовідчуття людини. Робота з чакрами активно використовується в індійській йозі і тантричному буддизмі. На диску записані спеціальні звуки, які активізують і заряджають відповідну чакру енергією. Для практики найкраще підійде поза лотоса або ж просто будь-яка поза з прямим хребтом. Слухайте вібрацію для кожної чакри і притримуйте свою увагу на місці її розташування в тілі. Остання композиція з кожним ударом дзвоника переміщує вашу свідомість від верхньої чакри Сахасрара в нижню чакру Муладхара.
    Практикуйте Звуки Чакри регулярно, і в результаті занять будете відчувати відчуття приємної вібрації у всьому тілі, відчуття рівноваги та енергетичної підзарядки.
    log
    Отчёт EAC об извлечении, выполненном 30. апреля 2007, 12:05 для диска:
    Anjey Satori / Zvuki Chakr

    Дисковод: HL-DT-STDVDRAM GSA-4163B Adapter: 1 ID: 1
    Режим чтения: Точный (C2: нет, Точный поток: да, Отключение кэша: нет)
    Комбинированное смещение чтения/записи: 0
    Экстрачтение областей Lead-in и Lead-out : Нет

    Выходной формат: Внутренние WAV-операции
    44.100 Гц; 16 бит; стерео

    Другие параметры:
    Заполнение пропущенных сэмплов тишиной : Да
    Удаление блоков с тишиной в начале и конце : Нет
    Нормализовать до 98
    'Родной' Win32-интерфейс для Win NT/2000

    Статус диапазона и ошибки
    Выбранный диапазон
    Имя файла D:\torrents.ru\Anjey_Satori-Zvuki_Chakr-2005\anjey_satori-zvuki_chakr-2005.wav

    Пиковый уровень 100.0 %
    Качество диапазона 100.0 %
    CRC A3A4C53F
    Копирование... OK

    Ошибок не произошло

    Конец отчёта
    fooCDtect
    fooCDtect - foobar2000 + auCDtect, baralgin.

    auCDtect: CD records authenticity detector, version 0.8.2
    Copyright (c) 2004 Oleg Berngardt. All rights reserved.
    Copyright (c) 2004 Alexander Djourik. All rights reserved.

    mode: 0

    =======================================================
    Track: 01 - Muladhara
    Quality: CDDA, 99%
    =======================================================
    Track: 02 - Svadishthana
    Quality: CDDA, 100%
    =======================================================
    Track: 03 - Manipura
    Quality: CDDA, 99%
    =======================================================
    Track: 04 - Anahata
    Quality: CDDA, 94%
    =======================================================
    Track: 05 - Vishuddha
    Quality: CDDA, 87%
    =======================================================
    Track: 06 - Adjna
    Quality: CDDA, 100%
    =======================================================
    Track: 07 - Sahasrara
    Quality: CDDA, 100%
    =======================================================
    Track: 08 - Return
    Quality: CDDA, 100%
    =======================================================
    2005 Deep meditation and relaxation music


    Пісні:
      01 - Rain Surround (7:27)
      02 - River Surround (12:21)
      03 - Sea Surround (8:11)
      04 - Forest Surround (5:04)
      05 - Night Surround (8:07)

    Тривалість: 00:41:13
    Бітрейт: 765 кб/с

    Медитативна музика в поєднанні з заколисуючими звуками природи для глибокого розслаблення
    log
    Exact Audio Copy V0.99 prebeta 5 from 4. May 2009

    EAC extraction logfile from 23. December 2010, 19:32

    Anjey Satori / Звуки природы для релаксации

    Used drive : HL-DT-STDVDRAM GH22NS40 Adapter: 5 ID: 0

    Read mode : Secure
    Utilize accurate stream : Yes
    Defeat audio cache : Yes
    Make use of C2 pointers : No

    Read offset correction : 667
    Overread into Lead-In and Lead-Out : No
    Fill up missing offset samples with silence : Yes
    Delete leading and trailing silent blocks : No
    Null samples used in CRC calculations : Yes
    Used interface : Installed external ASPI interface

    Used output format : User Defined Encoder
    Selected bitrate : 768 kBit/s
    Quality : High
    Add ID3 tag : No
    Command line compressor : C:\Program Files\Exact Audio Copy\Flac\flac.exe
    Additional command line options : -8 -V -T "ARTIST=%a" -T "TITLE=%t" -T "ALBUM=%g" -T "DATE=%y" -T "TRACKNUMBER=%n" -T "GENRE=%m" -T "COMMENT=%e" %s -o %d

    TOC of the extracted CD

    Track | Start | Length | Start sector | End sector
    ---------------------------------------------------------
    1 | 0:00.00 | 7:27.64 | 0 | 33588
    2 | 7:27.64 | 12:21.39 | 33589 | 89202
    3 | 19:49.28 | 8:11.66 | 89203 | 126093
    4 | 28:01.19 | 5:04.39 | 126094 | 148932
    5 | 33:05.58 | 8:07.39 | 148933 | 185496

    Range status and errors

    Selected range

    Filename E:\1EAC Rip\Anjey Satori - Звуки природы для релаксации (2008)\Anjey Satori - Звуки природы для релаксации.wav

    Peak level 89.5 %
    Range quality 100.0 %
    Test CRC 02208C8E
    Copy CRC 02208C8E
    Copy OK

    No errors occurred

    AccurateRip summary

    Track 1 not present in database
    Track 2 not present in database
    Track 3 not present in database
    Track 4 not present in database
    Track 5 not present in database

    None of the tracks are present in the AccurateRip database

    End of status report
    fooCDtect
    fooCDtect - foobar2000 + auCDtect, baralgin.

    auCDtect: CD records authenticity detector, version 0.8.2
    Copyright (c) 2004 Oleg Berngardt. All rights reserved.
    Copyright (c) 2004 Alexander Djourik. All rights reserved.

    mode: 0

    =======================================================
    Track: 01 - Rain Surround
    Quality: CDDA, 99%
    =======================================================
    Track: 02 - River Surround
    Quality: CDDA, 76%
    =======================================================
    Track: 03 - Sea Surround
    Quality: CDDA, 100%
    =======================================================
    Track: 04 - Forest Surround
    Quality: CDDA, 100%
    =======================================================
    Track: 05 - Night Surround
    Quality: CDDA, 100%
    =======================================================
    2005 Meditative Music


    Пісні:
      01 - Immersing In A Trance (28:53)
      02 - Returning To Sources (29:27)

    Тривалість: 00:58:21
    Бітрейт: 639 кб/с

    Повільна, текуча, безформна музика веде слухача в простір внутрішнього космосу, де відсутні думки і слова, де лише спокій, безмовність і космічний вітер.
    log
    Exact Audio Copy V0.99 prebeta 4 from 23. January 2008

    EAC extraction logfile from 5. May 2009, 21:09

    Anjey Satori / Meditative Music

    Used drive : TSSTcorpCDDVDW SH-S202N Adapter: 0 ID: 0

    Read mode : Secure
    Utilize accurate stream : Yes
    Defeat audio cache : Yes
    Make use of C2 pointers : No

    Read offset correction : 6
    Overread into Lead-In and Lead-Out : No
    Fill up missing offset samples with silence : Yes
    Delete leading and trailing silent blocks : No
    Null samples used in CRC calculations : Yes
    Used interface : Installed external ASPI interface

    Used output format : User Defined Encoder
    Selected bitrate : 896 kBit/s
    Quality : High
    Add ID3 tag : No
    Command line compressor : C:\Program Files\Exact Audio Copy\FLAC\FLAC.EXE
    Additional command line options : -8 -V -T "ARTIST=%a" -T "TITLE=%t" -T "ALBUM=%g" -T "DATE=%y" -T "TRACKNUMBER=%n" -T "GENRE=%m" -T "COMMENT=EAC FLAC -8" %s

    TOC of the extracted CD

    Track | Start | Length | Start sector | End sector
    ---------------------------------------------------------
    1 | 0:00.00 | 28:53.23 | 0 | 129997
    2 | 28:53.23 | 29:27.66 | 129998 | 262588

    Range status and errors

    Selected range

    Filename D:\Anjey Satori - Meditative Music (2005)\Anjey Satori - Meditative Music.wav

    Peak level 100.0 %
    Range quality 100.0 %
    Test CRC 871BC03C
    Copy CRC 871BC03C
    Copy OK

    No errors occurred

    AccurateRip summary

    Track 1 not present in database
    Track 2 not present in database

    None of the tracks are present in the AccurateRip database

    End of status report
    fooCDtect
    fooCDtect - foobar2000 + auCDtect, baralgin.

    auCDtect: CD records authenticity detector, version 0.8.2
    Copyright (c) 2004 Oleg Berngardt. All rights reserved.
    Copyright (c) 2004 Alexander Djourik. All rights reserved.

    mode: 0

    =======================================================
    Track: 01 - Immersing In A Trance
    Quality: CDDA, 100%
    =======================================================
    Track: 02 - Returning To Sources
    Quality: CDDA, 100%
    =======================================================
    2005 Sounds of Nature for Meditation


    Пісні:
      01 - Meditation 1 (8:47)
      02 - Meditation 2 (8:48)
      03 - Meditation 3 (7:52)
      04 - Meditation 4 (10:21)
      05 - Meditation 5 (6:59)

    Тривалість: 00:42:50
    Бітрейт: 758 кб/с

    Медитативна музика в поєднанні з заколисуючими звуками природи для глибокого розслаблення і медитації.
    log
    Exact Audio Copy V0.99 prebeta 5 from 4. May 2009

    EAC extraction logfile from 18. February 2010, 23:05

    Anjey Satori / Sounds for Meditation

    Used drive : HL-DT-STDVDRAM GH22NS40 Adapter: 3 ID: 0

    Read mode : Secure
    Utilize accurate stream : Yes
    Defeat audio cache : Yes
    Make use of C2 pointers : No

    Read offset correction : 667
    Overread into Lead-In and Lead-Out : No
    Fill up missing offset samples with silence : Yes
    Delete leading and trailing silent blocks : No
    Null samples used in CRC calculations : Yes
    Used interface : Installed external ASPI interface

    Used output format : User Defined Encoder
    Selected bitrate : 768 kBit/s
    Quality : High
    Add ID3 tag : No
    Command line compressor : C:\Program Files\Exact Audio Copy\FLAC\FLAC.EXE
    Additional command line options : -8 -V -T "ARTIST=%a" -T "TITLE=%t" -T "ALBUM=%g" -T "DATE=%y" -T "TRACKNUMBER=%n" -T "GENRE=%m" -T "COMMENT=%e" %s -o %d

    TOC of the extracted CD

    Track | Start | Length | Start sector | End sector
    ---------------------------------------------------------
    1 | 0:00.00 | 8:47.42 | 0 | 39566
    2 | 8:47.42 | 8:48.70 | 39567 | 79236
    3 | 17:36.37 | 7:52.43 | 79237 | 114679
    4 | 25:29.05 | 10:21.15 | 114680 | 161269
    5 | 35:50.20 | 6:59.61 | 161270 | 192755

    Range status and errors

    Selected range

    Filename D:\EAC Rip\Anjey Satori - Sound for Meditations\Anjey Satori - Sounds for Meditation.wav

    Peak level 88.8 %
    Range quality 100.0 %
    Copy CRC 06547297
    Copy OK

    No errors occurred

    AccurateRip summary

    Track 1 not present in database
    Track 2 not present in database
    Track 3 not present in database
    Track 4 not present in database
    Track 5 not present in database

    None of the tracks are present in the AccurateRip database

    End of status report
    fooCDtect
    fooCDtect - foobar2000 + auCDtect, baralgin.

    auCDtect: CD records authenticity detector, version 0.8.2
    Copyright (c) 2004 Oleg Berngardt. All rights reserved.
    Copyright (c) 2004 Alexander Djourik. All rights reserved.

    mode: 0

    =======================================================
    Track: 01 - Meditation 1
    Quality: CDDA, 100%
    =======================================================
    Track: 02 - Meditation 2
    Quality: CDDA, 100%
    =======================================================
    Track: 03 - Meditation 3
    Quality: CDDA, 100%
    =======================================================
    Track: 04 - Meditation 4
    Quality: CDDA, 100%
    =======================================================
    Track: 05 - Meditation 5
    Quality: CDDA, 99%
    =======================================================
    2006 Astral Journey


    Пісні:
      01 - Astral Flight (22:44)
      02 - Other Worlds (27:53)
      03 - Return (8:28)
      04 - Blue Planet (3:21)

    Тривалість: 01:02:28
    Бітрейт: 710 кб/с
    друга назва "Музика для подорожей поза тілом"

    Ви втомилися від круговерті сірих буднів? Хочеться кинути все і полетіти в іншу Галактику? Тоді цей альбом - для вас. Одягайте стереонавушники і вирушайте у віртуальну подорож по інших світах. Вас поведе космічна музика і технологія МОДУСС (аналогічна технології хемісінк). Протягом години ви будете відкривати з їх допомогою дивовижні і досі невідомі планети свого внутрішнього космосу. Якими ви їх побачите - залежить від "багажу" вашого підсвідомості, який ви самі чи мимоволі берете з собою. Можливо, ці бачення настільки захоплять вас, що повертаючись назад, ви несподівано можете побачити своє фізичне тіло лежить у вашому ліжку або відпочиваюче у вашому улюбленому кріслі. Значить у вас був справжній астральний вихід.
    log
    Отчёт EAC об извлечении, выполненном 29. апреля 2007, 14:25 для диска:
    Anjey Satori / Astral'noe Puteshestvie

    Дисковод: HL-DT-STDVDRAM GSA-4163B Adapter: 1 ID: 1
    Режим чтения: Точный (C2: нет, Точный поток: да, Отключение кэша: нет)
    Комбинированное смещение чтения/записи: 0
    Экстрачтение областей Lead-in и Lead-out : Нет

    Выходной формат: Внутренние WAV-операции
    44.100 Гц; 16 бит; стерео

    Другие параметры:
    Заполнение пропущенных сэмплов тишиной : Да
    Удаление блоков с тишиной в начале и конце : Нет
    Нормализовать до 98
    'Родной' Win32-интерфейс для Win NT/2000

    Статус диапазона и ошибки
    Выбранный диапазон
    Имя файла D:\torrents.ru\Anjey_Satori-Puteshestvie_V_Podsoznanie-2006\anjey_satori-astralnoe_puteshestvie-2006.wav

    Пиковый уровень 100.0 %
    Качество диапазона 99.9 %
    CRC C7540095
    Копирование... OK

    Ошибок не произошло

    Конец отчёта
    fooCDtect
    fooCDtect - foobar2000 + auCDtect, baralgin.

    auCDtect: CD records authenticity detector, version 0.8.2
    Copyright (c) 2004 Oleg Berngardt. All rights reserved.
    Copyright (c) 2004 Alexander Djourik. All rights reserved.

    mode: 0

    =======================================================
    Track: 01 - Astral Flight
    Quality: CDDA, 100%
    =======================================================
    Track: 02 - Other Worlds
    Quality: CDDA, 43%
    =======================================================
    Track: 03 - Return
    Quality: CDDA, 100%
    =======================================================
    Track: 04 - Blue Planet
    Quality: CDDA, 100%
    =======================================================
    2006 Golden Dreams


    Пісні:
      01 - Aurora (16:55)
      02 - Dolphin's heart (4:21)
      03 - Searching for the rest (16:59)
      04 - Golden Dreams (7:23)

    Тривалість: 00:45:40
    Бітрейт: 730 кб/с

    Шелест хвиль, шум прибою, крики китів і пісні дельфінів, а також спокійна мелодійна музика створюють відчуття спокою і гармонії. Розслабтесь і віддайтесь своїм найсвітлішим спогадами і золотим мріям. Диск рекомендується прослуховувати для зняття стресів, розслаблення, відпочинку і цілительства.
    log
    Отчёт EAC об извлечении, выполненном 30. апреля 2007, 12:29 для диска:
    Anjey Satori / Zolotye Mechty

    Дисковод: HL-DT-STDVDRAM GSA-4163B Adapter: 1 ID: 1
    Режим чтения: Точный (C2: нет, Точный поток: да, Отключение кэша: нет)
    Комбинированное смещение чтения/записи: 0
    Экстрачтение областей Lead-in и Lead-out : Нет

    Выходной формат: Внутренние WAV-операции
    44.100 Гц; 16 бит; стерео

    Другие параметры:
    Заполнение пропущенных сэмплов тишиной : Да
    Удаление блоков с тишиной в начале и конце : Нет
    Нормализовать до 98
    'Родной' Win32-интерфейс для Win NT/2000

    Статус диапазона и ошибки
    Выбранный диапазон
    Имя файла D:\torrents.ru\Anjey_Satori-Zolotye_Mechty-2006\anjey_satori-zolotye_mechty-2006.wav

    Пиковый уровень 89.1 %
    Качество диапазона 99.9 %
    CRC 829FD49F
    Копирование... OK

    Ошибок не произошло

    Конец отчёта
    fooCDtect
    fooCDtect - foobar2000 + auCDtect, baralgin.

    auCDtect: CD records authenticity detector, version 0.8.2
    Copyright (c) 2004 Oleg Berngardt. All rights reserved.
    Copyright (c) 2004 Alexander Djourik. All rights reserved.

    mode: 0

    =======================================================
    Track: 01 - Aurora
    Quality: CDDA, 100%
    =======================================================
    Track: 02 - Dolphin's heart
    Quality: CDDA, 100%
    =======================================================
    Track: 03 - Searching for the rest
    Quality: CDDA, 92%
    =======================================================
    Track: 04 - Golden Dreams
    Quality: CDDA, 100%
    =======================================================
    2006 Healing Sounds of Tibet


    Пісні:
      01 - Moon Night (5:41)
      02 - Passion of Nirvana (8:48)
      03 - Tibetan Horn (4:32)
      04 - Pray (7:46)
      05 - River Meditation (6:02)
      06 - Light Ning-Ma-Ga (6:57)
      07 - Big Om Melody (6:36)
      08 - Tibetan Trance (6:19)

    Тривалість: 00:52:44
    Бітрейт: 645 кб/с
    Це музика для цілительства і медитації. Вона дасть новий поштовх вашій практиці. Звуки тибетських дзвонів і чаш, поряд з горловим співом тибетських ченців, гармонізують і очистять енергію чакр, а спеціальна технологія звукозапису - синхронізує роботу півкуль головного мозку і поглибить медитативні переживання.

    Загадковий Тибет завжди вабив шукачів істини своїми таємницями. Одна з них - чарівна сила горлового співу тибетських ченців, магічні звуки співаючих чаш і тибетських дзвонів. Унікальний сплав металів, з якого виготовляються тибетські співаючі чаші, дозволяє отримати звук, що значно відрізняється від усіх інших музичних інструментів. Звучання співаючих чаш являє собою безмежний потік обертонів, що утворюють "спіралі", що обертаються навколо основного чуючого тону. Виникаючі при цьому резонансні хвилі очищають енергетику простору і ауру слухачів від негативної і застояної енергії. Тому звук співаючих чаш має цілющі властивості і здатний викликати надзвичайні стани свідомості.
    log
    немає
    fooCDtect
    fooCDtect - foobar2000 + auCDtect, baralgin.

    auCDtect: CD records authenticity detector, version 0.8.2
    Copyright (c) 2004 Oleg Berngardt. All rights reserved.
    Copyright (c) 2004 Alexander Djourik. All rights reserved.

    mode: 0

    =======================================================
    Track: 01 - Moon Night
    Quality: CDDA, 100%
    =======================================================
    Track: 02 - Passion of Nirvana
    Quality: CDDA, 100%
    =======================================================
    Track: 03 - Tibetan Horn
    Quality: CDDA, 100%
    =======================================================
    Track: 04 - Pray
    Quality: CDDA, 100%
    =======================================================
    Track: 05 - River Meditation
    Quality: CDDA, 100%
    =======================================================
    Track: 06 - Light Ning-Ma-Ga
    Quality: CDDA, 85%
    =======================================================
    Track: 07 - Big Om Melody
    Quality: CDDA, 100%
    =======================================================
    Track: 08 - Tibetan Trance
    Quality: CDDA, 100%
    =======================================================
    2006 Journey into Subconscious


    Пісні:
      01-Intro (6:36)
      02-Immersing (7:14)
      03-Alfa - Tetha (6:09)
      04-Shadows (8:04)
      05-Call Of Ancestors (6:14)
      06-Chaos (2:06)
      07-Transition From The Shadow To The Light (5:18)
      08-Spiritual I (2:02)
      09-Returning (2:36)
      10-Cleaning (4:55)
      11-Harmonization (6:05)

    Тривалість: 00:57:24
    Бітрейт: 503 кб/с

    Вам пропонується своєрідна подорож у свій внутрішній світ, зазвичай прихований в свідомості - нашу підсвідомість. Це світ тіні і світла - дитячих спогадів і страхів, тривог і хаосу, але це і світ де проявляються духовні енергії, пов'язані з нашим вищим Я. Подорож проходить через області тіні і архетипів давнини, потім вас чекає перехід з тіні на світло, де ви з'єднайтесь з енергіями вищого Я, і на завершення ви пройдете процес очищення і гармонізації.
    log
    Отчёт EAC об извлечении, выполненном 29. апреля 2007, 13:39 для диска:
    Anjey Satori / Putesgestvie V Podsoznanie

    Дисковод: HL-DT-STDVDRAM GSA-4163B Adapter: 1 ID: 1
    Режим чтения: Точный (C2: нет, Точный поток: да, Отключение кэша: нет)
    Комбинированное смещение чтения/записи: 0
    Экстрачтение областей Lead-in и Lead-out : Нет

    Выходной формат: Внутренние WAV-операции
    44.100 Гц; 16 бит; стерео

    Другие параметры:
    Заполнение пропущенных сэмплов тишиной : Да
    Удаление блоков с тишиной в начале и конце : Нет
    Нормализовать до 98
    'Родной' Win32-интерфейс для Win NT/2000

    Статус диапазона и ошибки
    Выбранный диапазон
    Имя файла D:\torrents.ru\Anjey_Satori-Puteshestvie_V_Podsoznanie-2006\anjey_satori-puteshestvie_v_podsoznanie-2006.wav

    Пиковый уровень 100.0 %
    Качество диапазона 100.0 %
    CRC 48F8163C
    Копирование... OK

    Ошибок не произошло

    Конец отчёта
    fooCDtect
    fooCDtect - foobar2000 + auCDtect, baralgin.

    auCDtect: CD records authenticity detector, version 0.8.2
    Copyright (c) 2004 Oleg Berngardt. All rights reserved.
    Copyright (c) 2004 Alexander Djourik. All rights reserved.

    mode: 0

    =======================================================
    Track: 01 - Intro
    Quality: CDDA, 100%
    =======================================================
    Track: 02 - Immersing
    Quality: MPEG, 100%
    =======================================================
    Track: 03 - Alfa - Tetha
    Quality: CDDA, 100%
    =======================================================
    Track: 04 - Shadows
    Quality: MPEG, 100%
    =======================================================
    Track: 05 - Call of ancestors
    Quality: CDDA, 42%
    =======================================================
    Track: 06 - Chaos
    Quality: CDDA, 100%
    =======================================================
    Track: 07 - Transition from the Shadow To the Light
    Quality: MPEG, 100%
    =======================================================
    Track: 08 - Spiritual I
    Quality: MPEG, 89%
    =======================================================
    Track: 09 - Returning
    Quality: CDDA, 99%
    =======================================================
    Track: 10 - Cleaning
    Quality: MPEG, 100%
    =======================================================
    Track: 11 - Harmonization
    Quality: CDDA, 43%
    =======================================================
    2006 Sleep Under The Rain


    Пісні:
      01 - Alfatetha Waves (29:41)
      02 - Tethadelta Waves (29:39)

    Тривалість: 00:59:21
    Бітрейт: 837 кб/с

    "Тепла" медитативна музика в поєднанні з заколисуючим шумом дощу і технологією МОДУСС допомагають непомітно перетнути кордон між сном і неспанням, а потім - залишитися в стані нормального, природного сну. Якщо ви практикуєте медитацію, ця музика полегшить входження в медитативний стан.

    Перший трек рекомендується для глибокого розслаблення, а другий для входу в медитативний стан.
    log
    Отчёт EAC об извлечении, выполненном 30. апреля 2007, 11:32 для диска:
    Anjey Satori / Son Pod Shum Dogdya

    Дисковод: HL-DT-STDVDRAM GSA-4163B Adapter: 1 ID: 1
    Режим чтения: Точный (C2: нет, Точный поток: да, Отключение кэша: нет)
    Комбинированное смещение чтения/записи: 0
    Экстрачтение областей Lead-in и Lead-out : Нет

    Выходной формат: Внутренние WAV-операции
    44.100 Гц; 16 бит; стерео

    Другие параметры:
    Заполнение пропущенных сэмплов тишиной : Да
    Удаление блоков с тишиной в начале и конце : Нет
    Нормализовать до 98
    'Родной' Win32-интерфейс для Win NT/2000

    Статус диапазона и ошибки
    Выбранный диапазон
    Имя файла D:\torrents.ru\Anjey_Satori-Son_Pod_Shum_Dogdya-2006\anjey_satori-son_pod_shum_dogdya-2006.wav

    Пиковый уровень 82.5 %
    Качество диапазона 100.0 %
    CRC 54B3FD98
    Копирование... OK

    Ошибок не произошло

    Конец отчёта
    fooCDtect
    fooCDtect - foobar2000 + auCDtect, baralgin.

    auCDtect: CD records authenticity detector, version 0.8.2
    Copyright (c) 2004 Oleg Berngardt. All rights reserved.
    Copyright (c) 2004 Alexander Djourik. All rights reserved.

    mode: 0

    =======================================================
    Track: 01 - Alpha - Theta Waves
    Quality: CDDA, 100%
    =======================================================
    Track: 02 - Theta - Delta Waves
    Quality: CDDA, 100%
    =======================================================
    2008 The Best


    Пісні:
      01 - Meditation (5:13)
      02 - Forest (4:19)
      03 - The Rest (5:55)
      04 - In A Stream (3:51)
      05 - Shadows (7:34)
      06 - Call Of Ancestors (5:27)
      07 - Trance (4:36)
      08 - Other Worlds (7:57)
      09 - Transition From A Shadow To The Light (4:54)
      10 - Sea (6:04)
      11 - Dream Under Noise Of A Rain (15:24)

    Тривалість: 01:11:19
    Бітрейт: 679 кб/с
    Кращі композиції для медитації 2003-2008 рр.
    Особливий розвиток і конкретну спрямованість медитація отримала в індійській йозі та буддизмі (як один з основних засобів досягнення релігійного звільнення). Але медитацію можна виявити і в античному «філософському екстазі» платоніків і неоплатоніків (причому у платоніків вона виступала як необхідна передумова теоретичного мислення, зокрема математичного), в «екзерціціі» (духовних вправах) єзуїтів, в єврейській Каббалі, у вченні про «шляхи» мусульман-суфіїв, і навіть у православному «розумному укладенні» (т. зв. «Логос-медитація», або «Ісусова молитва»). Нині медитація міцно увійшла в національні та релігійні культури багатьох країн.
    У сучасній психотерапії дуже широко застосовуються медитативні методи. Вважається, що медитація сприяє розслабленню, звільненню від стресу, очищенню свідомості від непотрібних думок і переживань, отриманню душевного спокою і внутрішньої гармонії.
    log
    Exact Audio Copy V0.99 prebeta 4 from 23. January 2008

    EAC extraction logfile from 19. May 2009, 20:12

    Anjey Satori / The Best

    Used drive : TSSTcorpCDDVDW SH-S202N Adapter: 0 ID: 0

    Read mode : Secure
    Utilize accurate stream : Yes
    Defeat audio cache : Yes
    Make use of C2 pointers : No

    Read offset correction : 6
    Overread into Lead-In and Lead-Out : No
    Fill up missing offset samples with silence : Yes
    Delete leading and trailing silent blocks : No
    Null samples used in CRC calculations : Yes
    Used interface : Installed external ASPI interface

    Used output format : User Defined Encoder
    Selected bitrate : 768 kBit/s
    Quality : High
    Add ID3 tag : No
    Command line compressor : C:\Program Files\Exact Audio Copy\FLAC\FLAC.EXE
    Additional command line options : -8 -V -T "ARTIST=%a" -T "TITLE=%t" -T "ALBUM=%g" -T "DATE=%y" -T "TRACKNUMBER=%n" -T "GENRE=%m" -T "COMMENT=EAC FLAC -8" %s

    TOC of the extracted CD

    Track | Start | Length | Start sector | End sector
    ---------------------------------------------------------
    1 | 0:00.00 | 5:13.11 | 0 | 23485
    2 | 5:13.11 | 4:19.38 | 23486 | 42948
    3 | 9:32.49 | 5:55.22 | 42949 | 69595
    4 | 15:27.71 | 3:51.74 | 69596 | 86994
    5 | 19:19.70 | 7:34.11 | 86995 | 121055
    6 | 26:54.06 | 5:27.17 | 121056 | 145597
    7 | 32:21.23 | 4:36.55 | 145598 | 166352
    8 | 36:58.03 | 7:57.61 | 166353 | 202188
    9 | 44:55.64 | 4:54.24 | 202189 | 224262
    10 | 49:50.13 | 6:04.29 | 224263 | 251591
    11 | 55:54.42 | 15:24.17 | 251592 | 320908

    Range status and errors

    Selected range

    Filename D:\Anjey Satori - The Best (2008)\Anjey Satori - The Best.wav

    Peak level 100.0 %
    Range quality 100.0 %
    Test CRC B51C6906
    Copy CRC B51C6906
    Copy OK

    No errors occurred

    AccurateRip summary

    Track 1 not present in database
    Track 2 not present in database
    Track 3 not present in database
    Track 4 not present in database
    Track 5 not present in database
    Track 6 not present in database
    Track 7 not present in database
    Track 8 not present in database
    Track 9 not present in database
    Track 10 not present in database
    Track 11 not present in database

    None of the tracks are present in the AccurateRip database

    End of status report
    fooCDtect
    fooCDtect - foobar2000 + auCDtect, baralgin.

    auCDtect: CD records authenticity detector, version 0.8.2
    Copyright (c) 2004 Oleg Berngardt. All rights reserved.
    Copyright (c) 2004 Alexander Djourik. All rights reserved.

    mode: 0

    =======================================================
    Track: 01 - Meditation
    Quality: CDDA, 100%
    =======================================================
    Track: 02 - Forest
    Quality: CDDA, 100%
    =======================================================
    Track: 03 - The Rest
    Quality: CDDA, 100%
    =======================================================
    Track: 04 - In A Stream
    Quality: CDDA, 100%
    =======================================================
    Track: 05 - Shadows
    Quality: MPEG, 100%
    =======================================================
    Track: 06 - Call Of Ancestors
    Quality: CDDA, 42%
    =======================================================
    Track: 07 - Trance
    Quality: CDDA, 100%
    =======================================================
    Track: 08 - Other Worlds
    Quality: CDDA, 86%
    =======================================================
    Track: 09 - Transition From A Shadow To The Light
    Quality: MPEG, 100%
    =======================================================
    Track: 10 - Sea
    Quality: CDDA, 99%
    =======================================================
    Track: 11 - Dream Under Noise Of A Rain
    Quality: CDDA, 99%
    =======================================================
    2009 Ethnic Drums


    Пісні:
      01 - darbuka bit (6:17)
      02 - kukutu (5:24)
      03 - ritual woodoo (6:01)
      04 - the brazilian rhytms (7:06)
      05 - crazy dance (5:42)
      06 - tribal loops (5:25)
      07 - mystical move (3:46)
      08 - vigorous drums (6:59)
      09 - zar (6:13)
      10 - tom tom (4:24)

    Тривалість: 00:57:19
    Бітрейт: 898 кб/с

    Після серії, повільних і заспокійливих робіт, Анжей Саторі в цьому альбомі, запрошує слухача «злегка розмятися», під вельми заводні ритми різних барабанів і не тільки.

    Африканські, тибетські, шаманські барабани і перкусія добре підійдуть для занять динамічними медитаціями. Наприклад такими як Латихан, Спонтанний танець, Динамічна, Кундаліні, Мандала.
    log
    Exact Audio Copy V0.99 prebeta 4 from 23. January 2008

    EAC extraction logfile from 30. June 2009, 19:22

    Anjey Satori / Ethnic Drums

    Used drive : TSSTcorpCDDVDW SH-S202N Adapter: 0 ID: 0

    Read mode : Secure
    Utilize accurate stream : Yes
    Defeat audio cache : Yes
    Make use of C2 pointers : No

    Read offset correction : 6
    Overread into Lead-In and Lead-Out : No
    Fill up missing offset samples with silence : Yes
    Delete leading and trailing silent blocks : No
    Null samples used in CRC calculations : Yes
    Used interface : Native Win32 interface for Win NT & 2000

    Used output format : User Defined Encoder
    Selected bitrate : 768 kBit/s
    Quality : High
    Add ID3 tag : No
    Command line compressor : C:\Program Files\Exact Audio Copy\Flac\flac.exe
    Additional command line options : -8 -V -T "ARTIST=%a" -T "TITLE=%t" -T "ALBUM=%g" -T "DATE=%y" -T "TRACKNUMBER=%n" -T "GENRE=%m" -T "COMMENT=EAC FLAC -8" %s

    TOC of the extracted CD

    Track | Start | Length | Start sector | End sector
    ---------------------------------------------------------
    1 | 0:00.00 | 6:17.01 | 0 | 28275
    2 | 6:17.01 | 5:24.00 | 28276 | 52575
    3 | 11:41.01 | 6:01.16 | 52576 | 79666
    4 | 17:42.17 | 7:06.13 | 79667 | 111629
    5 | 24:48.30 | 5:42.47 | 111630 | 137326
    6 | 30:31.02 | 5:25.19 | 137327 | 161720
    7 | 35:56.21 | 3:46.01 | 161721 | 178671
    8 | 39:42.22 | 6:59.04 | 178672 | 210100
    9 | 46:41.26 | 6:13.03 | 210101 | 238078
    10 | 52:54.29 | 4:24.71 | 238079 | 257949

    Range status and errors

    Selected range

    Filename D:\Anjey Satori - Ethnic Drums (2009)\Anjey Satori - Ethnic Drums.wav

    Peak level 100.0 %
    Range quality 100.0 %
    Test CRC DEFF8237
    Copy CRC DEFF8237
    Copy OK

    No errors occurred

    AccurateRip summary

    Track 1 not present in database
    Track 2 not present in database
    Track 3 not present in database
    Track 4 not present in database
    Track 5 not present in database
    Track 6 not present in database
    Track 7 not present in database
    Track 8 not present in database
    Track 9 not present in database
    Track 10 not present in database

    None of the tracks are present in the AccurateRip database

    End of status report
    fooCDtect
    fooCDtect - foobar2000 + auCDtect, baralgin.

    auCDtect: CD records authenticity detector, version 0.8.2
    Copyright (c) 2004 Oleg Berngardt. All rights reserved.
    Copyright (c) 2004 Alexander Djourik. All rights reserved.

    mode: 0

    =======================================================
    Track: 01 - Darbuka Bit
    Quality: CDDA, 100%
    =======================================================
    Track: 02 - Kukutu
    Quality: CDDA, 100%
    =======================================================
    Track: 03 - Ritual Woodoo
    Quality: CDDA, 100%
    =======================================================
    Track: 04 - The Brazilian Rhythms
    Quality: CDDA, 100%
    =======================================================
    Track: 05 - Crazy Dance
    Quality: CDDA, 100%
    =======================================================
    Track: 06 - Tribal Loops
    Quality: MPEG, 95%
    =======================================================
    Track: 07 - Mystical Move
    Quality: CDDA, 100%
    =======================================================
    Track: 08 - Vigorous Drums
    Quality: CDDA, 100%
    =======================================================
    Track: 09 - Zar
    Quality: CDDA, 100%
    =======================================================
    Track: 10 - Tom Tom
    Quality: CDDA, 100%
    =======================================================
    2009 Healing Rhythm of the Earth


    Пісні:
      01 - Earth Energy (58:19)

    Тривалість: 00:58:19
    Бітрейт: 574 кб/с

    Медитативна музика для зцілення

    Альбом "Healing: Ритм Землі" містить запис медитативної музики, промодельований частотою 7,83 Гц. Вірніше на диску присутні м'які бінауральні ритми з цією частотою. При штучній генерації 7,83 Гц, людина може приходити у відповідність з резонансом Землі. Частота 7,83 Гц може заспокоювати людський мозок, одночасно і стимулювати його. Дослідники говорять тут про особливу формі синхронізації мозку. 7,83 Гц можуть збільшувати здатність до концентрації уваги, інтелектуальні здібності, здатність до навчання та забезпечити те, що називається гарним настроєм. Дослідження і практика показують, що магнітотерапія з частотою 7,83 Гц може заново регенерувати слабкі фізичні функції організму, підвищити життєву силу і позитивно впливати на клітини організму. Властиві організму процеси регенерації можуть стимулюватися, і це дає додаткові можливості пробудження власних сил самовиздоровлення.

    Глибока медитативна музика цього альбому також позитивно впливає на функціонування муладхара і свадхістана чакри.
    log
    Exact Audio Copy V0.99 prebeta 4 from 23. January 2008

    EAC extraction logfile from 1. February 2010, 13:39

    Anjey Satori / Healing~Rhythm of the Earth

    Used drive : TSSTcorpCDDVDW SH-S202N Adapter: 0 ID: 0

    Read mode : Secure
    Utilize accurate stream : Yes
    Defeat audio cache : Yes
    Make use of C2 pointers : No

    Read offset correction : 6
    Overread into Lead-In and Lead-Out : No
    Fill up missing offset samples with silence : Yes
    Delete leading and trailing silent blocks : No
    Null samples used in CRC calculations : Yes
    Used interface : Native Win32 interface for Win NT & 2000
    Gap handling : Appended to previous track

    Used output format : User Defined Encoder
    Selected bitrate : 768 kBit/s
    Quality : High
    Add ID3 tag : No
    Command line compressor : C:\Program Files\Exact Audio Copy\Flac\flac.exe
    Additional command line options : -8 -V -T "ARTIST=%a" -T "TITLE=%t" -T "ALBUM=%g" -T "DATE=%y" -T "TRACKNUMBER=%n" -T "GENRE=%m" %s

    TOC of the extracted CD

    Track | Start | Length | Start sector | End sector
    ---------------------------------------------------------
    1 | 0:00.00 | 58:20.03 | 0 | 262502

    Track 1

    Filename D:\Anjey Satori - Healing~Rhythm of the Earth (2009)\01 - Earth Energy.wav

    Pre-gap length 0:00:02.00

    Peak level 100.0 %
    Track quality 100.0 %
    Test CRC EEDEE6D3
    Copy CRC EEDEE6D3
    Track not present in AccurateRip database
    Copy OK

    None of the tracks are present in the AccurateRip database

    No errors occurred

    End of status report
    fooCDtect
    fooCDtect - foobar2000 + auCDtect, baralgin.

    auCDtect: CD records authenticity detector, version 0.8.2
    Copyright (c) 2004 Oleg Berngardt. All rights reserved.
    Copyright (c) 2004 Alexander Djourik. All rights reserved.

    mode: 0

    =======================================================
    Track: 01 - Earth Energy
    Quality: CDDA, 100%
    =======================================================
    2009 Relax with Forest


    Пісні:
      01 - Good Morning (5:20)
      02 - Gentle Day (4:36)
      03 - Forest Symphony (3:56)
      04 - Rain (7:35)
      05 - Meditation (9:28)
      06 - River Meditation (6:12)
      07 - Nocturne (6:05)
      08 - The End Of Day (9:41)

    Тривалість: 00:52:55
    Бітрейт: 704 кб/с

    Звуки природи для релаксації і медитації. Релакс під звуки лісу.

    Альбом починається з композиції з використанням фортепіано і поступово музика стає більш медитативна для ефекту більш глибокої релаксації.
    log
    Exact Audio Copy V0.99 prebeta 4 from 23. January 2008

    EAC extraction logfile from 15. February 2010, 16:23

    Anjey Satori / Relax with Forest

    Used drive : TSSTcorpCDDVDW SH-S202N Adapter: 0 ID: 0

    Read mode : Secure
    Utilize accurate stream : Yes
    Defeat audio cache : Yes
    Make use of C2 pointers : No

    Read offset correction : 6
    Overread into Lead-In and Lead-Out : No
    Fill up missing offset samples with silence : Yes
    Delete leading and trailing silent blocks : No
    Null samples used in CRC calculations : Yes
    Used interface : Native Win32 interface for Win NT & 2000
    Gap handling : Appended to previous track

    Used output format : User Defined Encoder
    Selected bitrate : 768 kBit/s
    Quality : High
    Add ID3 tag : No
    Command line compressor : C:\Program Files\Exact Audio Copy\Flac\flac.exe
    Additional command line options : -8 -V -T "ARTIST=%a" -T "TITLE=%t" -T "ALBUM=%g" -T "DATE=%y" -T "TRACKNUMBER=%n" -T "GENRE=%m" %s

    TOC of the extracted CD

    Track | Start | Length | Start sector | End sector
    ---------------------------------------------------------
    1 | 0:00.00 | 5:20.05 | 0 | 24004
    2 | 5:20.05 | 4:37.00 | 24005 | 44779
    3 | 9:57.05 | 3:56.02 | 44780 | 62481
    4 | 13:53.07 | 7:35.02 | 62482 | 96608
    5 | 21:28.09 | 9:28.02 | 96609 | 139210
    6 | 30:56.11 | 6:12.02 | 139211 | 167112
    7 | 37:08.13 | 6:05.00 | 167113 | 194487
    8 | 43:13.13 | 9:42.07 | 194488 | 238144

    Track 1

    Filename D:\Anjey Satori - Relax with Forest (2009)\01 - Good Morning.wav

    Pre-gap length 0:00:02.00

    Peak level 100.0 %
    Track quality 100.0 %
    Test CRC ECC22633
    Copy CRC ECC22633
    Track not present in AccurateRip database
    Copy OK

    Track 2

    Filename D:\Anjey Satori - Relax with Forest (2009)\02 - Gentle Day.wav

    Peak level 53.2 %
    Track quality 100.0 %
    Test CRC 3778D4DB
    Copy CRC 3778D4DB
    Track not present in AccurateRip database
    Copy OK

    Track 3

    Filename D:\Anjey Satori - Relax with Forest (2009)\03 - Forest Symphony.wav

    Peak level 51.7 %
    Track quality 100.0 %
    Test CRC ECF8746E
    Copy CRC ECF8746E
    Track not present in AccurateRip database
    Copy OK

    Track 4

    Filename D:\Anjey Satori - Relax with Forest (2009)\04 - Rain.wav

    Peak level 63.2 %
    Track quality 100.0 %
    Test CRC 70FFD2FE
    Copy CRC 70FFD2FE
    Track not present in AccurateRip database
    Copy OK

    Track 5

    Filename D:\Anjey Satori - Relax with Forest (2009)\05 - Meditation.wav

    Peak level 62.7 %
    Track quality 100.0 %
    Test CRC 0FC1008A
    Copy CRC 0FC1008A
    Track not present in AccurateRip database
    Copy OK

    Track 6

    Filename D:\Anjey Satori - Relax with Forest (2009)\06 - River Meditation.wav

    Peak level 58.0 %
    Track quality 100.0 %
    Test CRC 6231A41B
    Copy CRC 6231A41B
    Track not present in AccurateRip database
    Copy OK

    Track 7

    Filename D:\Anjey Satori - Relax with Forest (2009)\07 - Nocturne.wav

    Peak level 73.0 %
    Track quality 100.0 %
    Test CRC E134A2E4
    Copy CRC E134A2E4
    Track not present in AccurateRip database
    Copy OK

    Track 8

    Filename D:\Anjey Satori - Relax with Forest (2009)\08 - The End of Day.wav

    Peak level 77.3 %
    Track quality 99.9 %
    Test CRC 7122A643
    Copy CRC 7122A643
    Track not present in AccurateRip database
    Copy OK

    None of the tracks are present in the AccurateRip database

    No errors occurred

    End of status report
    fooCDtect
    fooCDtect - foobar2000 + auCDtect, baralgin.

    auCDtect: CD records authenticity detector, version 0.8.2
    Copyright (c) 2004 Oleg Berngardt. All rights reserved.
    Copyright (c) 2004 Alexander Djourik. All rights reserved.

    mode: 0

    =======================================================
    Track: 01 - Good Morning
    Quality: CDDA, 100%
    =======================================================
    Track: 02 - Gentle Day
    Quality: MPEG, 92%
    =======================================================
    Track: 03 - Forest Symphony
    Quality: MPEG, 100%
    =======================================================
    Track: 04 - Rain
    Quality: CDDA, 99%
    =======================================================
    Track: 05 - Meditation
    Quality: CDDA, 87%
    =======================================================
    Track: 06 - River Meditation
    Quality: CDDA, 43%
    =======================================================
    Track: 07 - Nocturne
    Quality: MPEG, 99%
    =======================================================
    Track: 08 - The End of Day
    Quality: MPEG, 92%
    =======================================================
    2009 Relax with Ocean


    Пісні:
      01 - Relaxation (4:02)
      02 - Blue Water (4:02)
      03 - Deep Rest (33:38)
      04 - The Sea Diva (10:10)
      05 - Morning Breathe (7:59)

    Тривалість: 00:59:52
    Бітрейт: 737 кб/с

    Шум прибою, голоси дельфінів і китів, крики чайок під розслабляючу фонову музику.
    Альбом має освіжаючий і відновлюючий ефект.
    Рекомендується для зняття стресу, глибокого розслаблення і відпочинку.
    для посилення оздоровчого ефекту прослуховуйте диск в стереонавушниках.
    log
    Exact Audio Copy V0.99 prebeta 4 from 23. January 2008

    EAC extraction logfile from 30. August 2009, 19:13

    Anjey Satori / Relax With Ocean

    Used drive : TSSTcorpCDDVDW SH-S202N Adapter: 0 ID: 0

    Read mode : Secure
    Utilize accurate stream : Yes
    Defeat audio cache : Yes
    Make use of C2 pointers : No

    Read offset correction : 6
    Overread into Lead-In and Lead-Out : No
    Fill up missing offset samples with silence : Yes
    Delete leading and trailing silent blocks : No
    Null samples used in CRC calculations : Yes
    Used interface : Native Win32 interface for Win NT & 2000

    Used output format : User Defined Encoder
    Selected bitrate : 768 kBit/s
    Quality : High
    Add ID3 tag : No
    Command line compressor : C:\Program Files\Exact Audio Copy\Flac\flac.exe
    Additional command line options : -8 -V -T "ARTIST=%a" -T "TITLE=%t" -T "ALBUM=%g" -T "DATE=%y" -T "TRACKNUMBER=%n" -T "GENRE=%m" -T "COMMENT=EAC FLAC -8" %s

    TOC of the extracted CD

    Track | Start | Length | Start sector | End sector
    ---------------------------------------------------------
    1 | 0:00.00 | 4:02.00 | 0 | 18149
    2 | 4:02.00 | 4:02.00 | 18150 | 36299
    3 | 8:04.00 | 33:38.00 | 36300 | 187649
    4 | 41:42.00 | 10:10.00 | 187650 | 233399
    5 | 51:52.00 | 8:00.00 | 233400 | 269399

    Range status and errors

    Selected range

    Filename D:\Anjey Satori - Relax With Ocean (2009)\Anjey Satori - Relax With Ocean.wav

    Peak level 100.0 %
    Range quality 100.0 %
    Test CRC 643F6C2A
    Copy CRC 643F6C2A
    Copy OK

    No errors occurred

    AccurateRip summary

    Track 1 not present in database
    Track 2 not present in database
    Track 3 not present in database
    Track 4 not present in database
    Track 5 not present in database

    None of the tracks are present in the AccurateRip database

    End of status report
    fooCDtect
    fooCDtect - foobar2000 + auCDtect, baralgin.

    auCDtect: CD records authenticity detector, version 0.8.2
    Copyright (c) 2004 Oleg Berngardt. All rights reserved.
    Copyright (c) 2004 Alexander Djourik. All rights reserved.

    mode: 0

    =======================================================
    Track: 01 - Relaxation
    Quality: CDDA, 100%
    =======================================================
    Track: 02 - Blue Water
    Quality: MPEG, 93%
    =======================================================
    Track: 03 - Deep Rest
    Quality: MPEG, 99%
    =======================================================
    Track: 04 - The Sea Diva
    Quality: CDDA, 99%
    =======================================================
    Track: 05 - Morning Breathe
    Quality: CDDA, 100%
    =======================================================

Тривалість: 13:04:47
Мова: відсутня
Аудіо-кодек: FLAC
Бітрейт: 503-898 кб/с
Джерело: інтернет
Додаткова інформація:
Музика Анджея Саторі призначається для медитації, цілительства і практик внутрішніх подорожей.
Кожна композиція створює гармонійний баланс музики та духовності.

(з офіційного сайту)


Якщо Ви справді бажаєте підтримати українське - після прослуховування, якщо музика вам сподобалась,
придбайте ліцензійний диск.
Підтримаймо вітчизняних виконавців!


Золотий реліз (завантажене не впливає на рейтинг)
 Трекер:    Зареєстрований   

Завантажити / скачати українську музику



відео для новачків



 Зареєстрований:   2011-07-30 16:30
 Розмір:   3.89 GB 
 Оцінка музики:   7.9/10 (Голосів: 13)
   
staf777 
Попереджень: 1
Попереджень: 1 


З нами з: 16.11.16
Востаннє: 08.12.16
Повідомлень: 198

2016-11-25 20:02  
Музика Анджея Саторі призначається для медитації, цілительства і практик внутрішніх подорожей.
Кожна композиція створює гармонійний баланс музики та духовності.
Навіть дуже зацікавило - раніше не стикався з виконавцем хоча дуже полюбляю таку тематику

Ваш часовий пояс: GMT + 2 Години

Нова тема   Відповісти