Завантажити та скачати торренти українською


Транс-Формер - Територія троянд (2010) [FLAC] | Rock

Нові коментарі

Нова тема   Відповісти
Останній раз роздавалося Myfordownloads (2016-10-05)
Автор Повідомлення
fv007 
VIP


З нами з: 01.01.10
Востаннє: 09.12.16
Повідомлень: 449

2011-07-28 21:38  
Транс-Формер - Територія троянд (2010) [FLAC] | Rock



Стиль: Rock
Країна, місто: Україна, Полтава
Сайти: Офіційний сайт
Видавець: Moon records
Виконавці:
Бікеєв Роман
та інші учасники гурту
(в якому саме складі
записувався цей альбом
нажаль мені невідомо)
Пісні:
    1. Війна
    2. Летів
    3. Змусила
    4. Територія троянд
    5. Буде дощ
    6. Змінити світ
    7. Мері
    8. Емігрант
    9. Швидка допомога
    10. Євшанзілля
    11. Змусила (ремікс)


Тривалість: 00:38:59
Мова: українська
Аудіо-кодек: FLAC
Бітрейт: 1034 кб/с
Джерело: CD
log
Exact Audio Copy V0.99 prebeta 3 from 28. July 2007

Отчёт EAC об извлечении, выполненном 28. июля 2011, 22:33

Транс-Формер / Територія троянд

Дисковод: HL-DT-STDVDRAM GSA-4167B Adapter: 0 ID: 1

Режим чтения : Достоверность
Использование точного потока : Да
Отключение кэша аудио : Нет
Использование указателей C2 : Да

Комбинированное смещение чтения/записи : 0
Способность читать области Lead-in и Lead-out : Нет
Заполнение пропущенных сэмплов тишиной : Да
Удаление блоков с тишиной в начале и конце : Нет
При вычислениях CRC использовались нулевые сэмплы : Да
Интерфейс : Встроенный Win32-интерфейс для Win NT/2000

Выходной формат : Пользовательский кодировщик
Выбранный битрейт : 768 kBit/s
Качество : Высокий
Добавление ID3-тэга : Нет
Утилита сжатия : C:\Program Files\Exact Audio Copy\FLAC\FLAC.EXE
Дополнительные параметры : -6 -V -T "ARTIST=%a" -T "TITLE=%t" -T "ALBUM=%g" -T "DATE=%y" -T "TRACKNUMBER=%n" -T "GENRE=%m" -T "COMMENT=%e" %s -o %d

TOC извлечённого CD

Трек | Старт | Длительность | Начальный сектор | Конечный сектор
---------------------------------------------------------------------
1 | 0:00.00 | 3:22.06 | 0 | 15155
2 | 3:22.06 | 4:02.18 | 15156 | 33323
3 | 7:24.24 | 3:04.01 | 33324 | 47124
4 | 10:28.25 | 3:12.17 | 47125 | 61541
5 | 13:40.42 | 4:29.14 | 61542 | 81730
6 | 18:09.56 | 3:43.54 | 81731 | 98509
7 | 21:53.35 | 2:14.52 | 98510 | 108611
8 | 24:08.12 | 2:33.23 | 108612 | 120109
9 | 26:41.35 | 3:52.20 | 120110 | 137529
10 | 30:33.55 | 4:36.00 | 137530 | 158229
11 | 35:09.55 | 3:49.70 | 158230 | 175474
12 | 41:31.50 | 6:06.69 | 186875 | 214393

Характеристики диапазона извлечения и сообщения об ошибках

Выбранный диапазон

Имя файла D:\1. Українська\Т\Трансформер\2010 - Тереторія Троянд [FLAC]\Транс-Формер - Територія троянд.wav

Пиковый уровень 100.0 %
Качество диапазона 100.0 %
CRC копии 6FF0D26B
Копирование... OK

Ошибок не произошло

Конец отчёта
Додаткова інформація:
Знаєте що є особливого та відрізняє цей альбом поміж маси інших, прислухайтесь. «Територія троянд» – це шепіт вітру, що примушує серце колотити у грудях, ритм дощових капель, що стукають по підставлених долонях і душа що по справжньому кохає, кохає так що світ розтуляється, даючи новий шлях, це ті слова, що шепоче вам серце, залишаючись сам на сам із тишею, ц та музика що примушує відчувати себе живим, це те, чим ми дихаємо, що відбувається з нами сьогодні і можливо чекає на завтра.

Ось так було написано про цей альбом на сайті гурту.


Альбом у mp3 320 kbps
https://toloka.to/t23984

Якщо Ви справді бажаєте підтримати українське - після прослуховування, якщо музика вам сподобалась, придбайте ліцензійний диск. Підтримаймо вітчизняних виконавців!


Срібний реліз (на рейтинг впливає 50% завантаженого)
 Трекер:    Зареєстрований   

Завантажити / скачати українську музику



відео для новачків



 Зареєстрований:   2011-07-28 21:38
 Розмір:   289 MB 
 Оцінка музики:   10/10 (Голосів: 9)
   
ssTAss 
Модератор музики


З нами з: 05.07.08
Востаннє: 09.12.16
Повідомлень: 10948

2011-07-28 21:48  
fv007 написано:
Стиль:

заповніть
і додайте вміст лог файлу під спойлер, будь ласка

fv007 
VIP


З нами з: 01.01.10
Востаннє: 09.12.16
Повідомлень: 449

2011-07-28 22:08  
Готово!
bot 
робот


З нами з: 30.09.07
Востаннє: 26.05.05
Повідомлень: 16040

2011-07-28 22:17  
Тему перенесено з Поп, Естрада до форуму Рок, Метал, Альтернатива, Панк, СКА

Причина перенесення: стиль
ssTAss

mr.killer 
Свій


З нами з: 11.08.10
Востаннє: 08.12.16
Повідомлень: 146

2016-07-22 15:36  
хто це такий у нас не грамотний?! папка в роздачі "Тереторія"
Ваш часовий пояс: GMT + 2 Години

Нова тема   Відповісти