Завантажити та скачати торренти українською


Ігор Борко - Дискографія (2 альбоми) (2004-2006) [FLAC] | Folk / Opera

Нові коментарі

Нова тема   Відповісти
Автор Повідомлення
civ 
VIP


З нами з: 16.02.11
Востаннє: 10.12.16
Повідомлень: 429

2011-07-27 21:20  
Ігор Борко - Дискографія (2 альбоми) (2004-2006) [FLAC] | Folk / Opera


Стиль: Folk / Opera
Країна, місто: Україна, Київ
Видавець: UKRmusic
Альбоми:
2004 - З голосу землі моєї


Стиль: Folk / Opera
Видавець: UKRmusic
Пісні:
    01. Ой не шуми луже (музика М.Лисенко, слова І.Котляревський)
    02. Ой на горі липка (лемківська пісня)
    03. Де терня, там терня (лемківська пісня)
    04. Нічко цікавая (стілецька пісня, слова О.Романова)
    05. Стоїть гора високая (музика українська народна, слова Л.Глібов)
    06. По садочку ходжу (українська народна пісня)
    07. Ой любив та кохав (українська народна пісня)
    08. Зелений дубочку (українська народна пісня)
    09. Ой там у лузі при дорозі (пісня УПА)
    10. Діброва зелена (українська історична пісня)
    11. Заповіт (музика М.Лисенко, слова Т.Шевченко)
    12. Ой ти гора, гора (українська народна пісня)
    13. Ніч яка місячна (музика українська народна, слова М.Старицький)
    14. Повіяв вітер степовий (стілецька пісня)
    15. Ой у полі криниченка (українська народна пісня)
    16. Одна гора високая (українська народна пісня)
    17. Човник хитається (стілецька пісня, слова Р.Купчинський)
    18. Дума про Морозенка (українська народна пісня)

Тривалість: 01:02:08
Мова: українська
Аудіо-кодек: FLAC
Бітрейт: 741 кб/с
Джерело: Власний ріп
Тип ріпу: image + CUE + обкладинки, CUE та обкладинки - окремі та вбудовані
Додаткова інформація:
Судячи зі всього, сьогодні Ви маєте нагоду послухати один з кращих сучасних українських оперних тенорів. Приводити тут перелік його перемог у всіляких міжнародних конкурсах я, мабуть, не буду – буклет до диску доволі докладний. Але зазначу, що Ігор Борко – останній учень, останній випускник Костянтина Огнєвого, і учень блискучий. При цьому талановитий настільки, що, ще до навчання у консерваторії, вже гідно представляв Україну за кордоном. Та то все таке. Що справді важливо, і Ви це почуєте – це його голос. Лагідний, гнучкий, ніжний, справді ліричний – його неможливо не помітити, пропустити повз вуха. І, мабуть, непроста доля в цієї людини – бо так вже глибоко, тонко, насичено звучить відтінками його спів. Одразу відчуваєш – людина, в якої немає власного багатого внутрішнього досвіду переживань, розчарувань та просвітлень, так не заспіває. Тут ніяка уява не допоможе. Цей спів – через серце, від серця. І до серця. І, мабуть, не випадково на цьому диску не оперні арії, а просто українські пісні. Бо, коли вони заспівані так, як тут, то це вже не просто пісні. Самі перевірте.


Умка
EAC log

Exact Audio Copy V1.0 beta 2 from 29. April 2011

EAC extraction logfile from 23. July 2011, 21:19

Ігор Борко / З голосу землі моєї

Used drive : Optiarc DVD RW AD-7530B Adapter: 0 ID: 0

Read mode : Secure
Utilize accurate stream : Yes
Defeat audio cache : Yes
Make use of C2 pointers : No

Read offset correction : 6
Overread into Lead-In and Lead-Out : No
Fill up missing offset samples with silence : Yes
Delete leading and trailing silent blocks : No
Null samples used in CRC calculations : Yes
Used interface : Native Win32 interface for Win NT & 2000

Used output format : Internal WAV Routines
Sample format : 44.100 Hz; 16 Bit; Stereo

TOC of the extracted CD

Track | Start | Length | Start sector | End sector
---------------------------------------------------------
1 | 0:00.00 | 3:28.71 | 0 | 15670
2 | 3:28.71 | 3:10.67 | 15671 | 29987
3 | 6:39.63 | 2:25.66 | 29988 | 40928
4 | 9:05.54 | 3:11.63 | 40929 | 55316
5 | 12:17.42 | 3:45.65 | 55317 | 72256
6 | 16:03.32 | 3:37.36 | 72257 | 88567
7 | 19:40.68 | 2:48.41 | 88568 | 101208
8 | 22:29.34 | 3:01.07 | 101209 | 114790
9 | 25:30.41 | 3:57.59 | 114791 | 132624
10 | 29:28.25 | 3:02.33 | 132625 | 146307
11 | 32:30.58 | 5:58.04 | 146308 | 173161
12 | 38:28.62 | 2:44.59 | 173162 | 185520
13 | 41:13.46 | 2:39.57 | 185521 | 197502
14 | 43:53.28 | 4:37.50 | 197503 | 218327
15 | 48:31.03 | 3:07.70 | 218328 | 232422
16 | 51:38.73 | 1:51.20 | 232423 | 240767
17 | 53:30.18 | 3:03.64 | 240768 | 254556
18 | 56:34.07 | 5:34.02 | 254557 | 279608

Range status and errors

Selected range

Filename K:\Music\Ігор Борко - З голосу землі моєї (2004)\Ігор Борко - З голосу землі моєї.wav

Peak level 100.0 %
Extraction speed 4.5 X
Range quality 99.9 %
Copy CRC 72A135D8
Copy OK

No errors occurred

AccurateRip summary

Track 1 accurately ripped (confidence 1) [DDD01135] (AR v1)
Track 2 accurately ripped (confidence 1) [1B508485] (AR v1)
Track 3 accurately ripped (confidence 1) [FE20DDEC] (AR v1)
Track 4 accurately ripped (confidence 1) [39D68075] (AR v1)
Track 5 accurately ripped (confidence 1) [7EB3D3B2] (AR v1)
Track 6 accurately ripped (confidence 1) [DFB7A7DE] (AR v1)
Track 7 accurately ripped (confidence 1) [04197ED3] (AR v1)
Track 8 accurately ripped (confidence 1) [057DBC2B] (AR v1)
Track 9 accurately ripped (confidence 1) [A676D14D] (AR v1)
Track 10 accurately ripped (confidence 1) [C51F39B6] (AR v1)
Track 11 accurately ripped (confidence 1) [FC5CF44B] (AR v1)
Track 12 accurately ripped (confidence 1) [D3A88EF2] (AR v1)
Track 13 accurately ripped (confidence 1) [00156C78] (AR v1)
Track 14 accurately ripped (confidence 1) [5DCC6CF3] (AR v1)
Track 15 accurately ripped (confidence 1) [21D28593] (AR v1)
Track 16 accurately ripped (confidence 1) [0AFD7309] (AR v1)
Track 17 accurately ripped (confidence 1) [8514498F] (AR v1)
Track 18 accurately ripped (confidence 1) [E3A745D7] (AR v1)

All tracks accurately ripped

End of status report
fooCDtect

fooCDtect - foobar2000 + auCDtect, baralgin.

auCDtect: CD records authenticity detector, version 0.8.2
Copyright (c) 2004 Oleg Berngardt. All rights reserved.
Copyright (c) 2004 Alexander Djourik. All rights reserved.

mode: 0

=======================================================
Track: 01 - Ігор Борко - Ой не шуми луже (пісня Петра з опери «Наталка Полтавка»)
Quality: CDDA, 100%
=======================================================
Track: 02 - Ігор Борко - Ой на горі липка
Quality: CDDA, 100%
=======================================================
Track: 03 - Ігор Борко - Де терня, там терня
Quality: CDDA, 100%
=======================================================
Track: 04 - Ігор Борко - Нічко цікавая
Quality: CDDA, 100%
=======================================================
Track: 05 - Ігор Борко - Стоїть гора високая
Quality: CDDA, 100%
=======================================================
Track: 06 - Ігор Борко - По садочку ходжу
Quality: CDDA, 100%
=======================================================
Track: 07 - Ігор Борко - Ой любив та кохав
Quality: CDDA, 99%
=======================================================
Track: 08 - Ігор Борко - Зелений дубочку
Quality: CDDA, 100%
=======================================================
Track: 09 - Ігор Борко - Ой там у лузі при дорозі
Quality: CDDA, 100%
=======================================================
Track: 10 - Ігор Борко - Діброва зелена
Quality: CDDA, 100%
=======================================================
Track: 11 - Ігор Борко - Заповіт
Quality: CDDA, 58%
=======================================================
Track: 12 - Ігор Борко - Ой ти гора, гора
Quality: CDDA, 100%
=======================================================
Track: 13 - Ігор Борко - Ніч яка місячна
Quality: CDDA, 100%
=======================================================
Track: 14 - Ігор Борко - Повіяв вітер степовий
Quality: CDDA, 100%
=======================================================
Track: 15 - Ігор Борко - Ой у полі криниченька
Quality: CDDA, 100%
=======================================================
Track: 16 - Ігор Борко - Одна гора високая
Quality: CDDA, 99%
=======================================================
Track: 17 - Ігор Борко - Човник хитається
Quality: CDDA, 100%
=======================================================
Track: 18 - Ігор Борко - Дума про Морозенка
Quality: CDDA, 100%
=======================================================
2006 - Арії та неаполітанські пісні


Стиль: Opera
Видавець: UKRmusic
Пісні:

    01. Чарівна німфа (музика В.Білліні)
    02. Арія Артура з опери «Пуритани» (музика В.Білліні)
    03. Пісенька Герцога з опери «Ріголетто» (музика Дж.Верді)
    04. Арія італійського співака з опери «Кавалер троянд» (музика Р.Штраус)
    05. Арія Едгара з опери «Лючія ді Ламмермур» (музика Г.Доніцетті)
    06. Романс Надіра з опери «Шукачі перлин» (музика Ж.Бізе)
    07. Пісенька Тоніо з опери «Дочка полку» (музика Г.Доніцетті)
    08. Каватина Фауста з опери «Фауст» (музика Ш.Гуно)
    09. Зірочка (музика Мануель, М.Понсе)
    10. Серенада (музика Б.Абт)
    11. Скажіть, дівчата… (музика Р.Фальво, слова Е.Фуско)
    12. Лоліта (музика і слова А.Буцці-Печчіа)
    13. Мені не забути тебе (музика Е.Куртіс)
    14. О Марі (музика Е.Капуа, слова Капуро)
    15. Циганська гітара (музика Ельдо ді Лаццаро)
    16. Санта-Лючія (неаполітанська пісня, музична обробка Котрау)
    17. Голубка (музика С.Ірад’єр)
    18. Мамма (музика І.Біксіо, слова Керубіні)
    19. Моє сонечко (музика Е.Капуа)

Тривалість: 01:13:53
Мова: італійська (1-8, 11-19), російська (9, 10)
Аудіо-кодек: FLAC
Бітрейт: 720 кб/с
Джерело: Власний ріп
Тип ріпу: image + CUE + обкладинки, CUE та обкладинки - окремі та вбудовані
Додаткова інформація:
Талановитих людей у світі багато – зараз приблизно 6 мільярдів. Але далеко не кожній людині вистачає працелюбності, аби відшліфувати свій талант до справжнього блиску. Ігор Борко талантом працелюбності наділений не менше, ніж талантом співака – це очевидно. Адже він здатен зацікавити навіть тих, хто оперу не слухає – я свідок. І пояснення дуже просте – справжнє мистецтво існує поза межами, умовностями, вподобаннями. Іншими словами, Ви можете не любити оперу. Але, почувши раз спів Ігора Борка, Ви не залишитесь байдужим. Можливо, і не станете слухати оперу постійно – але його спів захочете почути ще не раз. Тому що краса і сила цього голосу, витонченість та глибина, майстерність виконання – справжні. Тому що, коли слухаєш – відчуваєш зростання простору, відчуваєш дотик непідробної краси. Тут присутня саме та щирість, яка робить мистецтво універсальною мовою спілкування, зрозумілою всюди і для всіх. Я би сказав, що мистецтво і живе лише завдяки таким людям, як от Ігор Борко. Людям, які здатні форму, як би вона не звалася, наповнити прекрасним змістом. В даному випадку форма зветься – опера.


Умка
EAC log

Exact Audio Copy V1.0 beta 2 from 29. April 2011

EAC extraction logfile from 23. July 2011, 20:53

Ігор Борко / Арії та неаполітанські пісні

Used drive : Optiarc DVD RW AD-7530B Adapter: 0 ID: 0

Read mode : Secure
Utilize accurate stream : Yes
Defeat audio cache : Yes
Make use of C2 pointers : No

Combined read/write offset correction : 6
Overread into Lead-In and Lead-Out : No
Fill up missing offset samples with silence : Yes
Delete leading and trailing silent blocks : No
Null samples used in CRC calculations : Yes
Used interface : Native Win32 interface for Win NT & 2000

Used output format : Internal WAV Routines
Sample format : 44.100 Hz; 16 Bit; Stereo

TOC of the extracted CD

Track | Start | Length | Start sector | End sector
---------------------------------------------------------
1 | 0:00.00 | 1:40.61 | 0 | 7560
2 | 1:40.61 | 5:51.26 | 7561 | 33911
3 | 7:32.12 | 2:21.32 | 33912 | 44518
4 | 9:53.44 | 2:48.20 | 44519 | 57138
5 | 12:41.64 | 6:35.45 | 57139 | 86808
6 | 19:17.34 | 3:45.18 | 86809 | 103701
7 | 23:02.52 | 4:10.43 | 103702 | 122494
8 | 27:13.20 | 5:25.08 | 122495 | 146877
9 | 32:38.28 | 4:31.38 | 146878 | 167240
10 | 37:09.66 | 4:46.33 | 167241 | 188723
11 | 41:56.24 | 3:43.03 | 188724 | 205451
12 | 45:39.27 | 2:41.63 | 205452 | 217589
13 | 48:21.15 | 2:59.64 | 217590 | 231078
14 | 51:21.04 | 3:10.54 | 231079 | 245382
15 | 54:31.58 | 3:56.23 | 245383 | 263105
16 | 58:28.06 | 3:08.02 | 263106 | 277207
17 | 61:36.08 | 5:22.37 | 277208 | 301394
18 | 66:58.45 | 3:27.01 | 301395 | 316920
19 | 70:25.46 | 3:27.03 | 316921 | 332448

Range status and errors

Selected range

Filename K:\Music\Ігор Борко - Арії та неаполітанські пісні (2006)\Ігор Борко - Арії та неаполітанські пісні.wav

Peak level 94.4 %
Extraction speed 5.0 X
Range quality 99.9 %
Copy CRC 4164D88B
Copy OK

No errors occurred

End of status report
fooCDtect

fooCDtect - foobar2000 + auCDtect, baralgin.

auCDtect: CD records authenticity detector, version 0.8.2
Copyright (c) 2004 Oleg Berngardt. All rights reserved.
Copyright (c) 2004 Alexander Djourik. All rights reserved.

mode: 0

=======================================================
Track: 01 - Ігор Борко - Чарівна німфа
Quality: CDDA, 76%
=======================================================
Track: 02 - Ігор Борко - Арія Артура з опери «Пуритани»
Quality: CDDA, 100%
=======================================================
Track: 03 - Ігор Борко - Пісенька Герцога з опери «Ріголетто»
Quality: CDDA, 100%
=======================================================
Track: 04 - Ігор Борко - Арія італійського співака з опери «Кавалер троянд»
Quality: CDDA, 100%
=======================================================
Track: 05 - Ігор Борко - Арія Едгара з опери «Лючія ді Ламмермур»
Quality: CDDA, 99%
=======================================================
Track: 06 - Ігор Борко - Романс Надіра з опери «Шукачі перлин»
Quality: CDDA, 100%
=======================================================
Track: 07 - Ігор Борко - Пісенька Тоніо з опери «Дочка полку»
Quality: CDDA, 100%
=======================================================
Track: 08 - Ігор Борко - Каватина Фауста з опери «Фауст»
Quality: CDDA, 100%
=======================================================
Track: 09 - Ігор Борко - Зірочка
Quality: CDDA, 100%
=======================================================
Track: 10 - Ігор Борко - Серенада
Quality: CDDA, 43%
=======================================================
Track: 11 - Ігор Борко - Скажіть, дівчата…
Quality: CDDA, 54%
=======================================================
Track: 12 - Ігор Борко - Лоліта
Quality: CDDA, 87%
=======================================================
Track: 13 - Ігор Борко - Мені не забути тебе
Quality: MPEG, 80%
=======================================================
Track: 14 - Ігор Борко - О Марі
Quality: CDDA, 100%
=======================================================
Track: 15 - Ігор Борко - Циганська гітара
Quality: CDDA, 100%
=======================================================
Track: 16 - Ігор Борко - Неаполітанська пісня «Санта-Лючія»
Quality: CDDA, 100%
=======================================================
Track: 17 - Ігор Борко - Голубка
Quality: MPEG, 92%
=======================================================
Track: 18 - Ігор Борко - Мамма
Quality: CDDA, 100%
=======================================================
Track: 19 - Ігор Борко - Моє сонечко
Quality: CDDA, 100%
=======================================================
Тривалість: 02:16:01
Мова: українська, італійська, російська
Аудіо-кодек: FLAC
Бітрейт: 720-741 кб/с
Джерело: Власний ріп
Тип ріпу: image + CUE + обкладинки, CUE та обкладинки - окремі та вбудовані
Додаткова інформація:
Ігор Борко — наш сучасник. Оперний співак, тенор.
Народився у Києві. Співав у співав в Національній капелі бандуристів, квартеті «Явір». Закінчив Київську консерваторію, де навчався у Костянтина Огнєвого.
Як оперний співак розкрився в Одеському театрі опери та балету. Зараз співає у Національній опері України.
Коли взяв до рук ці диски, то відразу пригадав Володимира Гришка. Як би я не поважав пана Гришка, та все ж таки він — більш «попсовий» співак. І ця думка мене мучила — яким виявиться Ігор Борко.
Але прослухавши диски, моє занепокоєння розвіялося. Голос — потужний, красивий, чистий. Пан Ігор дуже добре співає.
П.С. Зверніть увагу на трек №18 у «Аріях та неаполітанських піснях». Хто пам’ятає пісню «Мамо» у виконанні Любомира Масюка? Тут вона в оригіналі. Happy


Якщо Ви справді бажаєте підтримати українське - після прослуховування, якщо музика вам сподобалась, придбайте ліцензійний диск. Підтримаймо вітчизняних виконавців!


Золотий реліз (завантажене не впливає на рейтинг)
 Трекер:    Зареєстрований   

Завантажити / скачати українську музику



відео для новачків



 Зареєстрований:   2011-07-27 21:20
 Розмір:   747 MB 
 Оцінка музики:   9.5/10 (Голосів: 8)
   
imonko 
Відео Гуртом - фільмокрай
Відео Гуртом - фільмокрай


З нами з: 20.07.08
Востаннє: 31.10.16
Повідомлень: 7309

2011-07-28 17:31  
civ написано:
Змінено: ssTAss (2011-07-27 22:27)Змінено: civ (2011-07-27 22:24)

даруйте за офтоп але якщо я правильно розумію зміну то респект, молодці давно пора

civ 
VIP


З нами з: 16.02.11
Востаннє: 10.12.16
Повідомлень: 429

2011-07-28 20:54  
Я змінював повідомлення, бо поки редагував потер останню червону приписку - повертав назад. Що змінював Стас, я не розумію. Також не розумію і вас. Happy

Хоча ні, бачу, що Стас додав видавця до загальної інформації.

ssTAss 
Модератор музики


З нами з: 05.07.08
Востаннє: 11.12.16
Повідомлень: 10958

2011-07-28 21:09  
civ написано:
Видавець: UKRmusic

civ написано:

Джерело: Власний ріп
Тип ріпу: image + CUE + обкладинки, CUE та обкладинки - окремі та вбудовані

ось ці стрічки додав до загальної інформації
ну і коли модер ставить метал, то теж пишеться "змінено"
але тут це зробив одразу з попередніми правками

Ваш часовий пояс: GMT + 2 Години

Нова тема   Відповісти