Завантажити та скачати торренти українською


Трансформери: Помста полеглих / Transformers: Revenge of the Fallen [IMAX Edition] (2009) 1080p Remux Ukr/Rus/Eng / Sub Ukr/Rus/Eng

Нові коментарі

Нова тема   Відповісти
Останній раз роздавалося YAGUARCHIK (2016-11-25)
Автор Повідомлення
Devil_my_cry 
Новенький


З нами з: 26.06.10
Востаннє: 27.11.16
Повідомлень: 22

2011-07-27 21:03  
Трансформери: Помста полеглих / Transformers: Revenge of the Fallen [IMAX Edition] (2009) 1080p Remux Ukr/Rus/Eng | Sub Ukr/Rus/Eng



Жанр: бойовик, фантастика, пригодницький
Країна: США



Кіностудія / кінокомпанія: DreamWorks SKG, Paramount Pictures
Режисер: Майкл Бей
Актори: Шайа ЛаБаф, Меган Фокс, Джош Дюамель, Тайріз Гібсон, Джон Туртурро, Рамон Родрігез, Кевін Данн, Джулі Уайт, Ізабель Лукас, Джон Бенжамін Хіккі

Сюжет:
Пройшло кілька років з моменту масштабного зіткнення Автоботів і Десептиконів на Землі. Сем, намагаючись втекти від минулого, тимчасово розлучився із Мікаелою та вирушив в університет навчатися. Загін автоботів на чолі з Оптимусом Праймом об'єднався разом із людьми тепер уже сержанта Леннокса у спеціальний підрозділ за назвою "NEST" (Networked Elements: Supporters and Transformers) і розпочав вилов Десептиконів, що залишилися на планеті. Але зло не дрімає, воно лише затаїлося. І дуже скоро на планету нападуть незліченна зграя ворожих солдатів, що бажають прикласти максимум зусиль задля воскресіння свого полеглого лідера - Мегатрона - та розгромити ряди захисників добра.


Тривалість: 02:30:24
Якість: Remux
Відео:
кодек: MPEG-4 AVC
розмір кадру: 1920x1080
бітрейт: 39 Мб/с

Аудіо # 1:
мова: українська
переклад: професійний дубльований
кодек: 5.1
бітрейт: 448 кб/с

Аудіо # 2:
мова: російська
переклад: професійний дубльований
кодек: 5.1
бітрейт: 448 кб/с

Аудіо # 3:
мова: англійська
переклад: оригінал
кодек: HD MA 5.1
бітрейт: 1585 кб/с

Аудіо # 4:
мова: англійська (коментарі режисера та сценаристів)
переклад: оригінал
кодек: 2.0
бітрейт: 224 кб/с

Субтитри # 1-2:
мова: українська (форсовані, повні)
тип: пререндерні
формат: PGS

Субтитри # 3-4:
мова: російська (форсовані, повні)
тип: пререндерні
формат: PGS

Субтитри # 5-6:
мова: англійська (форсовані, повні)
тип: пререндерні
формат: PGS
MediaInfo
Код:
General
ID                               : 1 (0x1)
Complete name                    : V:\Transformers Revenge of the Fallen [IMAX Edition] (2009) 1080p Remux UkrRusEng.m2ts
Format                           : BDAV
Format/Info                      : Blu-ray Video
File size                        : 41.2 GiB
Duration                         : 2h 30mn
Overall bit rate                 : 39.2 Mbps
Maximum Overall bit rate         : 35.5 Mbps

Video
ID                               : 4113 (0x1011)
Menu ID                          : 1 (0x1)
Format                           : AVC
Format/Info                      : Advanced Video Codec
Format profile                   : [email protected]
Format settings, CABAC           : Yes
Format settings, ReFrames        : 4 frames
Codec ID                         : 27
Duration                         : 2h 30mn
Bit rate mode                    : Variable
Bit rate                         : 34.9 Mbps
Maximum bit rate                 : 36.0 Mbps
Width                            : 1 920 pixels
Height                           : 1 080 pixels
Display aspect ratio             : 16:9
Frame rate                       : 23.976 fps
Color space                      : YUV
Chroma subsampling               : 4:2:0
Bit depth                        : 8 bits
Scan type                        : Progressive
Bits/(Pixel*Frame)               : 0.702
Stream size                      : 36.7 GiB (89%)
Color primaries                  : BT.709-5, BT.1361, IEC 61966-2-4, SMPTE RP177
Transfer characteristics         : BT.709-5, BT.1361
Matrix coefficients              : BT.709-5, BT.1361, IEC 61966-2-4 709, SMPTE RP177

Audio #1
ID                               : 4352 (0x1100)
Menu ID                          : 1 (0x1)
Format                           : AC-3
Format/Info                      : Audio Coding 3
Mode extension                   : CM (complete main)
Codec ID                         : 129
Duration                         : 2h 30mn
Bit rate mode                    : Constant
Bit rate                         : 448 Kbps
Channel(s)                       : 6 channels
Channel positions                : Front: L C R, Side: L R, LFE
Sampling rate                    : 48.0 KHz
Bit depth                        : 16 bits
Compression mode                 : Lossy
Stream size                      : 482 MiB (1%)
Language                         : Ukrainian

Audio #2
ID                               : 4353 (0x1101)
Menu ID                          : 1 (0x1)
Format                           : AC-3
Format/Info                      : Audio Coding 3
Mode extension                   : CM (complete main)
Codec ID                         : 129
Duration                         : 2h 30mn
Bit rate mode                    : Constant
Bit rate                         : 448 Kbps
Channel(s)                       : 6 channels
Channel positions                : Front: L C R, Side: L R, LFE
Sampling rate                    : 48.0 KHz
Bit depth                        : 16 bits
Compression mode                 : Lossy
Stream size                      : 482 MiB (1%)
Language                         : Russian

Audio #3
ID                               : 4354 (0x1102)
Menu ID                          : 1 (0x1)
Format                           :
Format/Info                      : Digital Theater Systems
Format profile                   : MA / Core
Muxing mode                      : Stream extension
Codec ID                         : 134
Duration                         : 2h 30mn
Bit rate mode                    : Variable
Bit rate                         : 1 585 Kbps / 1 510 Kbps
Channel(s)                       : 6 channels
Channel positions                : Front: L C R, Side: L R, LFE
Sampling rate                    : 48.0 KHz
Bit depth                        : 24 bits
Compression mode                 : Lossless / Lossy
Language                         : English

Audio #4
ID                               : 4355 (0x1103)
Menu ID                          : 1 (0x1)
Format                           : AC-3
Format/Info                      : Audio Coding 3
Mode extension                   : CM (complete main)
Codec ID                         : 129
Duration                         : 2h 30mn
Bit rate mode                    : Constant
Bit rate                         : 224 Kbps
Channel(s)                       : 2 channels
Channel positions                : Front: L R
Sampling rate                    : 48.0 KHz
Bit depth                        : 16 bits
Compression mode                 : Lossy
Stream size                      : 241 MiB (1%)
Language                         : English

Text #1
ID                               : 4609 (0x1201)
Menu ID                          : 1 (0x1)
Format                           : PGS
Codec ID                         : 144
Language                         : Ukrainian

Text #2
ID                               : 4611 (0x1203)
Menu ID                          : 1 (0x1)
Format                           : PGS
Codec ID                         : 144
Language                         : Russian
Скріншоти





 Трекер:    Зареєстрований   

Завантажити / скачати фільм українською



відео для новачків



 Зареєстрований:   2011-08-04 23:14
 Розмір:   41.18 GB 
 Оцінка фільму:   9.6/10 (Голосів: 20)
   
Arsenfpu 
Відео Гуртом - фільмокрай
Відео Гуртом - фільмокрай


З нами з: 30.04.09
Востаннє: 06.12.16
Повідомлень: 1587

2011-07-27 22:59  
А чому і не роздавати? Кому треба - скачає!
Mira Candy 
Новенький


З нами з: 31.07.11
Востаннє: 11.01.12
Повідомлень: 1

2011-07-31 21:19  
Я скачаю)
Andick 
Модератор відео та координатор поширення


З нами з: 03.11.09
Востаннє: 06.12.16
Повідомлень: 1499

2011-08-05 13:34  
позакривайте всі теги, бо виглядає погано
Devil_my_cry написано:
Якість: Blu-Ray Remux (1080p)
шось лишнє Happy
Devil_my_cry 
Новенький


З нами з: 26.06.10
Востаннє: 27.11.16
Повідомлень: 22

2011-08-05 13:49  
Ага, точно лишнєHappy
Andick 
Модератор відео та координатор поширення


З нами з: 03.11.09
Востаннє: 06.12.16
Повідомлень: 1499

2011-08-05 20:07  
ну то виправляти будите???
Devil_my_cry 
Новенький


З нами з: 26.06.10
Востаннє: 27.11.16
Повідомлень: 22

2011-08-05 21:43  
Вже здається виправив,доречі що за група адміністратори?
Andick 
Модератор відео та координатор поширення


З нами з: 03.11.09
Востаннє: 06.12.16
Повідомлень: 1499

2011-08-06 00:06  
Devil_my_cry написано:
Якість: BDRip Remux
приберіть, це ж не ріп
Devil_my_cry написано:
доречі що за група адміністратори?
натисніть і дізнаєтесь Wide grin
hurtomruslan 
Новенький


З нами з: 17.09.11
Востаннє: 01.11.11
Повідомлень: 2

2011-09-24 16:12  
Дайте швидкості...
Devil_my_cry 
Новенький


З нами з: 26.06.10
Востаннє: 27.11.16
Повідомлень: 22

2011-09-24 16:42  
Я не ставлю обмеження в швидкості))
свє 
Новенький


З нами з: 05.12.11
Востаннє: 05.12.16
Повідомлень: 20

2012-02-07 18:10  
Чому не має перекладу в епізоді "битва в лісі"і відсутня фраза Бджілки перед тим коли Сем запитує в Близнюків про ієрогліфи,
Devil_my_cry 
Новенький


З нами з: 26.06.10
Востаннє: 27.11.16
Повідомлень: 22

2012-02-10 13:18  
Привіт,вчіть англійську))
dr_stas 
Відео Гуртом - дизайнер
Відео Гуртом - дизайнер


З нами з: 21.07.09
Востаннє: 03.12.16
Повідомлень: 452

2012-02-10 15:02  
тут хоч і є IMAX сцени, але на скріншотах щось їх не показано, додайте.
big__s 
Свій


З нами з: 22.06.09
Востаннє: 05.12.16
Повідомлень: 73

2012-02-10 19:49  
Шкода зіпсованого рейтингу. фільм на 2 гігах оперативки і на карті 512 тупить неймовірно Confused
свє 
Новенький


З нами з: 05.12.11
Востаннє: 05.12.16
Повідомлень: 20

2012-02-17 16:56  
Не хочу Happy .Доречі в російські дорішці те саме, а на англійські КМ плеєр зависає.І ще одне; в одному релізів ІМАХ версії дубляж присутній.
olyx 
Відео Гуртом - підтримка та поширення
Відео Гуртом - підтримка та поширення


З нами з: 25.01.10
Востаннє: 05.10.16
Повідомлень: 231

2012-02-17 18:51  
На таку якість потрібно досить потужну машину. 2 Гб оперативки при W7 це мінімум, може і не тянути. Потрібно знати ще й яка відеокарта. а не тільки скільки відеопамяті на борту, а також який процесор. Знову ж таки яким плеєром користувались...
А на рахунок рейтингу мені теж не зрозуміло чому даний реліз не являється золотим...

leroykendall 
Модератор HD


З нами з: 03.01.11
Востаннє: 20.11.16
Повідомлень: 749

2012-02-17 19:08  
olyx написано:
мені теж не зрозуміло чому даний реліз не являється золотим...

Мабуть тому що
Devil_my_cry написано:
Аудіо # 2:
мова: російська

telos 
Свій


З нами з: 19.04.11
Востаннє: 22.11.16
Повідомлень: 50

2012-04-22 14:58  
big__s
багато залежить від використовуваного плеєра,а не тільки від заліза.
а вставки з імакс-вражаючі)

Ваш часовий пояс: GMT + 2 Години

Нова тема   Відповісти