Завантажити та скачати торренти українською


Левко Тимощук - Пісні наших походів (2009) [FLAC] | Folk

Нові коментарі

Нова тема   Відповісти
Автор Повідомлення
civ 
VIP


З нами з: 16.02.11
Востаннє: 04.12.16
Повідомлень: 429

2011-07-27 19:38  
Левко Тимощук - Пісні наших походів (2009) [FLAC] | Folk



Стиль: Folk
Країна, місто: Україна, Львів
Видавець: Наш Формат
Виконавці:
Л.Тимощук - вокал
М.Хавар-Андросюк - гітари, акордеони, аранжація
М.Блочищак - сопілки, най
Пісні:
    01. Іван Підкова (вірш)
    02. Ще за давніх князівських часів
    03. Ой на річці, на широкій
    04. Гей розвивайся та й сухий дубе
    05. Хтось та й вродиться з нас нещасливо
    06. Як сурми заграють
    07. Козак від’їжджає, дівчинонька плаче
    08. Життя бурлацькеє
    09. Думка (Тече вода в синє море)
    10. Їхав козак гори та байрак
    11. Шабелина
    12. Як збиралися орли
    Бонус:
    13. Ще за давніх князівських часів (відео)
Відео



Тривалість: 00:02:52

Відео:
кодек:
розмір кадру: 512 x 384
бітрейт: 1240 кб/с

Аудіо:
кодек: MP3
бітрейт: 160 кб/с
Тривалість (аудіо): 00:34:27
Мова: українська
Аудіо-кодек: FLAC
Бітрейт: 856 кб/с
Джерело: Власний ріп
Тип ріпу: image + CUE + обкладинки, CUE та обклажинки - окремі та вбудовані
Додаткова інформація:
"Львівське козацьке товариство "Кіш" цього річ святкує 20-ліття з часу заснування.

У 1991 році під орудою отамана В.Качмара Півторакожуха товариство збудувало козацьку чайку "Пресвята Покрова". Починаючи з 1992 року "Кошем" було здійснено низку походів по Дніпру, Чорному, Середземному та Північному морях, відвідуючи і беручи безпосередню участь у морських святкуваннях Амстердаму, Руану, Соутгамптону, Бресту та інших міст Європи.

Левко Тимощук – автор ідеї цього диску і двох перших пісень на ньому – був активним будівничим козацького човна, а пізніше отаманом товариства і капітаном чайки.

У 1996р. участь у поході взяли музиканти Микола Хавар-Андросюк, та Мирон Блощичак, з якими створено цей альбом. До компакт-диску увійшли, окрім вже згаданих, козацькі похідні, кубанські та українські народні пісні, що їх Левко з товариством полюбляв співати найчастіше. Надіємось, що і Вам, шановні слухачі, вони теж прийдуться до душі."


З поліграфії до видання
EAC Log

Exact Audio Copy V1.0 beta 2 from 29. April 2011

EAC extraction logfile from 26. July 2011, 18:49

Левко Тимощук / Пісні наших походів

Used drive : Optiarc DVD RW AD-7530B Adapter: 0 ID: 0

Read mode : Secure
Utilize accurate stream : Yes
Defeat audio cache : Yes
Make use of C2 pointers : No

Read offset correction : 6
Overread into Lead-In and Lead-Out : No
Fill up missing offset samples with silence : Yes
Delete leading and trailing silent blocks : No
Null samples used in CRC calculations : Yes
Used interface : Native Win32 interface for Win NT & 2000

Used output format : Internal WAV Routines
Sample format : 44.100 Hz; 16 Bit; Stereo

TOC of the extracted CD

Track | Start | Length | Start sector | End sector
---------------------------------------------------------
1 | 0:00.00 | 1:51.57 | 0 | 8381
2 | 1:51.57 | 2:37.44 | 8382 | 20200
3 | 4:29.26 | 3:40.61 | 20201 | 36761
4 | 8:10.12 | 2:47.09 | 36762 | 49295
5 | 10:57.21 | 3:14.06 | 49296 | 63851
6 | 14:11.27 | 2:42.08 | 63852 | 76009
7 | 16:53.35 | 2:46.12 | 76010 | 88471
8 | 19:39.47 | 4:29.71 | 88472 | 108717
9 | 24:09.43 | 1:56.62 | 108718 | 117479
10 | 26:06.30 | 2:27.46 | 117480 | 128550
11 | 28:34.01 | 3:16.35 | 128551 | 143285
12 | 31:50.36 | 2:36.02 | 143286 | 154987
13 | 36:58.38 | 3:22.17 | 166388 | 181554

Range status and errors

Selected range

Filename C:\Users\civ\Documents\m\Обідране\Левко Тимощук - Пісні наших походів (2009)\Левко Тимощук - Пісні наших походів.wav

Peak level 100.0 %
Extraction speed 4.1 X
Range quality 99.9 %
Copy CRC 442AF1D5
Copy OK

No errors occurred

AccurateRip summary

Track 1 not present in database
Track 2 not present in database
Track 3 not present in database
Track 4 not present in database
Track 5 not present in database
Track 6 not present in database
Track 7 not present in database
Track 8 not present in database
Track 9 not present in database
Track 10 not present in database
Track 11 not present in database
Track 12 not present in database

None of the tracks are present in the AccurateRip database

End of status report
fooCDtect

fooCDtect - foobar2000 + auCDtect, baralgin.

auCDtect: CD records authenticity detector, version 0.8.2
Copyright (c) 2004 Oleg Berngardt. All rights reserved.
Copyright (c) 2004 Alexander Djourik. All rights reserved.

mode: 0

=======================================================
Track: 01 - Левко Тимощук - Іван Підкова
Quality: CDDA, 100%
=======================================================
Track: 02 - Левко Тимощук - Ще за давніх князівських часів
Quality: CDDA, 100%
=======================================================
Track: 03 - Левко Тимощук - Ой на річці, на широкій
Quality: CDDA, 100%
=======================================================
Track: 04 - Левко Тимощук - Гей розвивайся та й сухий дубе
Quality: CDDA, 100%
=======================================================
Track: 05 - Левко Тимощук - Хтось та й вродиться з нас нещасливо
Quality: CDDA, 100%
=======================================================
Track: 06 - Левко Тимощук - Як сурми заграють
Quality: CDDA, 100%
=======================================================
Track: 07 - Левко Тимощук - Козак від’їжджає, дівчинонька плаче
Quality: CDDA, 100%
=======================================================
Track: 08 - Левко Тимощук - Життя бурлацькеє
Quality: CDDA, 99%
=======================================================
Track: 09 - Левко Тимощук - Думка (Тече вода в синє море)
Quality: CDDA, 100%
=======================================================
Track: 10 - Левко Тимощук - Їхав козак гори та байрак
Quality: CDDA, 99%
=======================================================
Track: 11 - Левко Тимощук - Шабелина
Quality: CDDA, 100%
=======================================================
Track: 12 - Левко Тимощук - Як збиралися орли
Quality: CDDA, 100%
=======================================================
Якщо Ви справді бажаєте підтримати українське - після прослуховування, якщо музика вам сподобалась, придбайте ліцензійний диск. Підтримаймо вітчизняних виконавців!


Срібний реліз (на рейтинг впливає 50% завантаженого)
 Трекер:    Зареєстрований   

Завантажити / скачати українську музику



відео для новачків



 Зареєстрований:   2011-07-27 19:38
 Розмір:   253 MB 
 Оцінка музики:   9.4/10 (Голосів: 7)
   
Ваш часовий пояс: GMT + 2 Години

Нова тема   Відповісти