Завантажити та скачати торренти українською


Національна заслужена капела бандуристів України ім. Г. І. Майбороди - Фольклорний ансамбль "Козаки" (1998) [APE] | Folk

Нові коментарі

Нова тема   Відповісти
Останній раз роздавалося boberчег (2016-12-05)
Автор Повідомлення
ssTAss 
Модератор музики


З нами з: 05.07.08
Востаннє: 09.12.16
Повідомлень: 10948

2011-07-27 13:46  
Національна заслужена капела бандуристів України ім. Г. І. Майбороди - Фольклорний ансамбль "Козаки" (1998) [APE] | Folk



Стиль: Folk
Країна, місто: Україна, Київ
Сайти: Офіційний сайт
Видавець: Rostok Records
Виконавці:
Дмитро Попічук – (худ. керівник) цимбали, ріжок, окарина, тилинка, кавал, сопілка, кувиця
Юрій Гвоздь – цимбали, ріжок, окарина, волинка, дводенцівка, сопілка, кувиця
Володимир Дичко – баян
Юрій Власик – контрабас, сопілка
Євген Клименко – кларнет, сопілка
Сергій Сальніков – бухало, бубон, сопілка
Володимир Мотошин – кобза
Олександр Юхименко – вокал, кобза, береста
Іван Рева – вокал, бугай
Віктор Віденко – вокал
Володимир Голубничий – бандура
Пісні:
    1. Троїсті музики
    2. Буковинські мелодії: В Карпатах/ Коломийки/ Весільний танець
    3. Діброво зелена
    4. Коломийки
    5. Фантазія на українські народні мелодії (для цимбал з ансамблем)
    6. Гуцульська рапсодія
    7. Дивлюсь я на небо
    8. Одна гора високая
    9. Веснянки (кавал з ансамблем)
    10. Українські народні мелодії: Добрий вечір дівчино/ Ой у вишневому садочку/ Полька
    11. Музичні жарти
    12. Підкручу я чорнії вуса
    13. Як посіяв мужик та й у полі ячмінь
    14. Віночок українських народних мелодій
    15. Молдавські мелодії
    16. Три румунські мелодії для цимбал з ансамблем
    17. Місяць на небі
    18. Як ішов я з Дебречина
    19. Київський козак
    20. Весільна полька
    21. Троїсті музики
log

Exact Audio Copy V0.99 prebeta 4 from 23. January 2008

Звіт EAC про видобування, котре виконане 12. липня 2011, 10:03

Невідомий Виконавець / Невідома Назва

Дисковод: PIONEER DVD-RW DVR-111D Adapter: 0 ID: 0

Режим читання : Точний
Використати точний потік : Так
Вимкнути аудіо кеш : Так
Застосувати мітки C2 : Ні

Корекція зміщення при читанні : 48
Екстрачитання областей Lead-in і Lead-out : Ні
Заповнення пропущених семплів тишею : Так
Видалення блоків з тишею на початку і кінці : Ні
При вирахуванні CRC використовувались нульові семпли : Так
Використаний інтерфейс : Встановлений зовнішній ASPI-інтерфейс

Застосований вихідний формат : Внутрішні WAV-операції
Формат семпла : 44.100 Гц; 16 біт; стерео

TOC видобутого CD

Трек | Старт | Довжина | Початковий сектор | Кінцевий сектор
------------------------------------------------------------------
1 | 0:00.00 | 4:16.74 | 0 | 19273
2 | 4:16.74 | 3:19.17 | 19274 | 34215
3 | 7:36.16 | 3:15.56 | 34216 | 48896
4 | 10:51.72 | 2:16.00 | 48897 | 59096
5 | 13:07.72 | 4:22.36 | 59097 | 78782
6 | 17:30.33 | 5:11.38 | 78783 | 102145
7 | 22:41.71 | 3:44.64 | 102146 | 119009
8 | 26:26.60 | 2:05.18 | 119010 | 128402
9 | 28:32.03 | 2:44.64 | 128403 | 140766
10 | 31:16.67 | 2:21.56 | 140767 | 151397
11 | 33:38.48 | 2:49.11 | 151398 | 164083
12 | 36:27.59 | 2:29.04 | 164084 | 175262
13 | 38:56.63 | 3:09.05 | 175263 | 189442
14 | 42:05.68 | 5:53.46 | 189443 | 215963
15 | 47:59.39 | 2:39.59 | 215964 | 227947
16 | 50:39.23 | 5:03.23 | 227948 | 250695
17 | 55:42.46 | 3:37.08 | 250696 | 266978
18 | 59:19.54 | 2:40.15 | 266979 | 278993
19 | 61:59.69 | 2:11.07 | 278994 | 288825
20 | 64:11.01 | 1:50.72 | 288826 | 297147
21 | 66:01.73 | 3:08.02 | 297148 | 311249

Статус діапазону і помилки

Обраний діапазон

Ім'я файлу E:\My uploads\Music\APE\Kozaky\Невідомий Виконавець - Невідома Назва.wav

Піковий рівень 98.0 %
Якість діапазону 100.0 %
CRC копії 0DCFD38D
Копіювання... OK

Помилки не траплялися

Кінець звіту
fooCdtect

fooCDtect - foobar2000 + auCDtect, baralgin.

auCDtect: CD records authenticity detector, version 0.8.2
Copyright (c) 2004 Oleg Berngardt. All rights reserved.
Copyright (c) 2004 Alexander Djourik. All rights reserved.

mode: 0

=======================================================
Track: 01 - Троїсті музики
Quality: CDDA, 100%
=======================================================
Track: 02 - Буковинські мелодії
Quality: CDDA, 100%
=======================================================
Track: 03 - Діброво зелена
Quality: CDDA, 100%
=======================================================
Track: 04 - Коломийки
Quality: CDDA, 100%
=======================================================
Track: 05 - Фантазія на українські народні мелодії (для цимбал з ансамблем)
Quality: CDDA, 99%
=======================================================
Track: 06 - Гуцульська рапсодія
Quality: CDDA, 100%
=======================================================
Track: 07 - Дивлюсь я на небо
Quality: CDDA, 100%
=======================================================
Track: 08 - Одна гора високая
Quality: CDDA, 100%
=======================================================
Track: 09 - Веснянки (кавал з ансамблем)
Quality: CDDA, 99%
=======================================================
Track: 10 - Українські народні мелодії
Quality: CDDA, 100%
=======================================================
Track: 11 - Музичні жарти
Quality: CDDA, 100%
=======================================================
Track: 12 - Підкручу я чорнії вуса
Quality: CDDA, 99%
=======================================================
Track: 13 - Як посіяв мужик та й у полі ячмінь
Quality: CDDA, 100%
=======================================================
Track: 14 - Віночок українських народних мелодій
Quality: CDDA, 100%
=======================================================
Track: 15 - Молдавські мелодії
Quality: CDDA, 100%
=======================================================
Track: 16 - Три румунські мелодії для цимбал з ансамблем
Quality: CDDA, 100%
=======================================================
Track: 17 - Місяць на небі
Quality: CDDA, 100%
=======================================================
Track: 18 - Як ішов я з Дебречина
Quality: CDDA, 100%
=======================================================
Track: 19 - Київський козак
Quality: CDDA, 100%
=======================================================
Track: 20 - Весільна полька
Quality: CDDA, 99%
=======================================================
Track: 21 - Троїсті музики
Quality: CDDA, 100%
=======================================================
Тривалість: 01:09:10
Мова: відсутня, українська (3, 7,8,12,13,17,18)
Аудіо-кодек: APE
Бітрейт: 794 кб/с
Джерело: share.net.ua (автор ріпу heihasi)
Додаткова інформація:
"Багатим і різноманітним є український народний інструментарій. До найдавніших музичних інструментів належать: бубон, бандура, торбан, цимбали, басоля, бас, ліра, сопілка, денцівка (гуцульський тип сопілки), кувиця, трембіта, сурма, волинка, дримба.
В ансамблі "Козаки" використовуються майже всі згадані інструменти. Відродженню і пропаганді української народної пісні, інструментальному виконанню присвятив свою творчу діяльність фольклорний ансамбль "Козаки" Національної капели бандуристів України.

До знайомства з ніжною, хвилюючою мелодією української народної пісні, зі своєрідними музичними інструментами запрошує наш колектив."

(інформація з поліграфії до CD)


Якщо Ви справді бажаєте підтримати українське - після прослуховування, якщо музика вам сподобалась,
придбайте ліцензійний диск.
Підтримаймо вітчизняних виконавців!


Срібний реліз (на рейтинг впливає 50% завантаженого)
 Трекер:    Зареєстрований   

Завантажити / скачати українську музику



відео для новачків



 Зареєстрований:   2011-07-27 13:46
 Розмір:   393 MB 
 Оцінка музики:   7.6/10 (Голосів: 12)
   
Ваш часовий пояс: GMT + 2 Години

Нова тема   Відповісти