Завантажити та скачати торренти українською


Київський квартет саксофоністів - Чарівний ритм (2006) [APE] | Jazz

Нові коментарі

Нова тема   Відповісти
Останній раз роздавалося MataMia (2016-12-04)
Автор Повідомлення
ssTAss 
Модератор музики


З нами з: 05.07.08
Востаннє: 05.12.16
Повідомлень: 10939

2011-07-24 23:18  
Київський квартет саксофоністів - Чарівний ритм (2006) [APE] | Jazz



Стиль: Jazz
Країна, місто: Україна, Київ
Сайти: Офіційний сайт
Видавець: Tempora
Виконавці:
Юрій Василевич (керівник) - сопрано
Михайло Мимрик - альт
Олег Заремський - тенор
Сергій Гданський - баритон
Пісні:
    1. Дж. Гершвін - Чарівний ритм
    2. В. Генді - Сент Луї Блюз
    3. А. Темплтон - Гумореска
    4. І. Берлін - Олександр регтайм бенд
    5. А. Гідоні - Блюз і бугі
    6. Дж. Гершвін - О Леді, будьте ласкаві!
    7. Дж. Гершвін - Людина, котру я люблю
    8. Ф. Домажлицький - Фокстрот
    9. Дж. Леннон, П. Маккартні - Коли мені буде 64
    10. М. Леонтович - Щедрик
    11. С. Хайден, С. Джоплін - Щось вишукане
    12. К. Вейль - Танго
    13. С. Джоплін - Оригінал рег
    14. Дж. Гершвін - Плескаймо
    15. А. П’яццолла - Облівіон
    16. Н. Рота - Музика з кінофільму "8,5"
    17. Г. Манчіні - Рожева пантера
    18. Г Міллер - Коктейль опівночі
    19. П Пашков - Згадуючи Бітлз
log

Exact Audio Copy V0.99 prebeta 4 from 23. January 2008

Отчёт EAC об извлечении, выполненном 12. июня 2009, 20:03

Kyiv Saxophone Quartet / Fascinating Rhythm

Дисковод: Optiarc DVD RW AD-7200A Adapter: 3 ID: 1

Режим чтения : Достоверность
Использование точного потока : Да
Отключение кэша аудио : Да
Использование указателей C2 : Нет

Коррекция смещения при чтении : 48
Способность читать области Lead-in и Lead-out : Нет
Заполнение пропущенных сэмплов тишиной : Да
Удаление блоков с тишиной в начале и конце : Нет
При вычислениях CRC использовались нулевые сэмплы : Да
Интерфейс : Установленный внешний ASPI-интерфейс

Выходной формат : Внутренние WAV-операции
Формат сэмплов : 44.100 Гц; 16 бит; стерео

TOC извлечённого CD

Трек | Старт | Длительность | Начальный сектор | Конечный сектор
---------------------------------------------------------------------
1 | 0:00.00 | 2:49.28 | 0 | 12702
2 | 2:49.28 | 4:29.74 | 12703 | 32951
3 | 7:19.27 | 2:18.07 | 32952 | 43308
4 | 9:37.34 | 3:26.00 | 43309 | 58758
5 | 13:03.34 | 2:54.02 | 58759 | 71810
6 | 15:57.36 | 1:41.50 | 71811 | 79435
7 | 17:39.11 | 3:40.05 | 79436 | 95940
8 | 21:19.16 | 2:16.14 | 95941 | 106154
9 | 23:35.30 | 2:11.03 | 106155 | 115982
10 | 25:46.33 | 3:06.40 | 115983 | 129972
11 | 28:52.73 | 2:54.02 | 129973 | 143024
12 | 31:47.00 | 2:52.01 | 143025 | 155925
13 | 34:39.01 | 3:56.13 | 155926 | 173638
14 | 38:35.14 | 1:12.13 | 173639 | 179051
15 | 39:47.27 | 2:46.07 | 179052 | 191508
16 | 42:33.34 | 3:31.04 | 191509 | 207337
17 | 46:04.38 | 2:30.29 | 207338 | 218616
18 | 48:34.67 | 5:43.00 | 218617 | 244341
19 | 54:17.67 | 7:45.40 | 244342 | 279256

Характеристики диапазона извлечения и сообщения об ошибках

Выбранный диапазон

Имя файла E:\Up-Down\Kyiv Saxophone Quartet - Fascinating Rhythm\Kyiv Saxophone Quartet - Fascinating Rhythm.wav

Пиковый уровень 80.4 %
Качество диапазона 99.9 %
CRC копии 0DBDFA36
Копирование... OK

Ошибок не произошло

Конец отчёта
Тривалість: 01:02:03
Мова: відсутня
Аудіо-кодек: APE
Бітрейт: 650 кб/с
Джерело: інтернет
Додаткова інформація:
Київський квартет саксофоністів створено в 1985 році солістом оркестру Національної опери України Юрієм Василевичем.
Колектив виступав у багатьох містах України, а також у різних країнах світу: в Угорщині, Росії (1988), Польщі (1990), Франції (1990, 1991, 1993, 1994, 1996, 1998, 1999, 2000, 2004), Бельгії (1991, 1993, 1994, 1998, 2004), Греції (1992, 1995, 1997), Італії (1992), Німеччині (1996), США та Канаді (1994, 1995, 2000), у Білорусі (2004).
Квартет отримав: першу премію на Всеукраїнському конкурсі камерних ансамблів у Києві (1987), першу премію та приз "Кришталевий Лев" на Міжнародному джазовому конкурсі у Львові (1989), першу премію на Міжнародному конкурсі духових оркестрів та камерних ансамблів у м. Рівному (1996).
Визнаний кращім колективом: на Міжнародному "Музик-фесті" (1993), на Міжнародному конкурсі у м. Росток (Німеччина, 1997), а також на Міжнародному фестивалі слов'янської музики в Парижі (1998).
Брав участь у Всесвітньому конгресі саксофоністів, присвяченому 150-річчю створення саксофона, в м. Анже (Франція, 1990), 10-му Всесвітньому конгресі саксофоністів, м. Пезаро (Італія, 1992), Європейському конгресі кларнетистів та саксофоністів, м. Будапешт (Угорщина, 1996), в 11-му Всесвітньому конгресі саксофоністів, м. Монреаль (Канада, 2000).
У репертуарі квартету - українська фольклорна, класична та сучасна авангардна музика, джазові композиції. Колектив має записи на радіо та телебаченні.
Київській квартет саксофоністів грає на інструментах фірми СЕЛЬМЕР - ПАРИЖ, аксесуари фірми ВАНДОРЕН - ПАРИЖ.


Якщо Ви справді бажаєте підтримати українське - після прослуховування, якщо музика вам сподобалась,
придбайте ліцензійний диск.
Підтримаймо вітчизняних виконавців!


Срібний реліз (на рейтинг впливає 50% завантаженого)
 Трекер:    Зареєстрований   

Завантажити / скачати українську музику



відео для новачків



 Зареєстрований:   2011-07-24 23:18
 Розмір:   297 MB 
 Оцінка музики:   7/10 (Голосів: 9)
   
inki 
VIP


З нами з: 24.10.09
Востаннє: 13.10.16
Повідомлень: 380

2011-07-25 17:28  
То файно але ще б дати стягнути
Ваш часовий пояс: GMT + 2 Години

Нова тема   Відповісти