Завантажити та скачати торренти українською


Священик / Priest (2011) 720p-mini

Нові коментарі

Нова тема   Відповісти
Автор Повідомлення
Drool 
VIP


З нами з: 17.04.10
Востаннє: 10.12.16
Повідомлень: 1270

2011-07-24 01:39  
Священик / Priest (2011) 720p-mini



Жанр: жахи, фантастика, бойовик, трилер
Країна: США



Кіностудія / кінокомпанія: Buckaroo Entertainment, Michael De Luca Productions, Screen Gems, Stars Road Entertainment, TOKYOPOP; мейджор – Buena Vista Sony Pictures Releasing (BVSPR)
Режисер: Скотт Чарльз Стюарт
Актори: Пол Беттані, Карл Урбан, Кем Жиганде, Меггі К'ю, Лілі Коллінз, Бред Дуріф, Стівен Мойер, Крістофер Пламмер, Алан Дейл, Медкен Емік

Сюжет:
Пост-апокаліптичний науково-фантастичний трилер. Дія відбувається в альтернативному світі, де століттями триває війна між людьми та вампірами. Сюжет обертається навколо легендарного Воїна Священика, який живе тихим та мирним життям серед звичайних людей. Але коли вампіри викрадають його племінницю, він знову виходить на шлях війни, забувши про свої обітниці та порушуючи усі встановлені правила...


Тривалість: 01:27:27
Якість: 720p-mini
Відео:
кодек:
розмір кадру: 1280x534
бітрейт: 2050 кб/с

Аудіо:
мова: українська
переклад: професійний дубльований
кодек: 5.1
бітрейт: 448 кб/с
Переклад і озвучення виконано:
Звіт MediaInfo
General
Unique ID : 145977673180248350318120950489309746889 (0x6DD246F6832F828978A3EA97EBAF96C9)
Complete name : /mnt/disk_d/Video/Films/Priest.2011.D.Ukr...FireBit.mkv
Format : Matroska
File size : 1.53 GiB
Duration : 1h 27mn
Overall bit rate : 2 499 Kbps
Movie name : Священик / Priest (2011) AVC від FireBit
Encoded date : UTC 2011-07-23 22:26:27
Writing application : mkvmerge v4.4.0 ('Die Wiederkehr') зібрано Apr 5 2011 20:08:52
Writing library : libebml v1.0.0 + libmatroska v1.0.0

Video
ID : 1
Format : AVC
Format/Info : Advanced Video Codec
Format profile : [email protected]
Format settings, CABAC : Yes
Format settings, ReFrames : 5 frames
Muxing mode : Header stripping
Codec ID : V_MPEG4/ISO/AVC
Duration : 1h 27mn
Bit rate : 2 050 Kbps
Width : 1 280 pixels
Height : 534 pixels
Display aspect ratio : 2.35:1
Frame rate : 23.976 fps
Color space : YUV
Chroma subsampling : 4:2:0
Bit depth : 8 bits
Scan type : Progressive
Bits/(Pixel*Frame) : 0.125
Stream size : 1.22 GiB (80%)
Title : Priest
Writing library : core 80 r1376M 3feaec2
Encoding settings : cabac=1 / ref=5 / deblock=1:0:0 / analyse=0x3:0x113 / me=umh / subme=8 / psy=1 / psy_rd=1.0:0.0 / mixed_ref=1 / me_range=16 / chroma_me=1 / trellis=1 / 8x8dct=1 / cqm=0 / deadzone=21,11 / fast_pskip=1 / chroma_qp_offset=0 / threads=12 / sliced_threads=0 / nr=0 / decimate=1 / mbaff=0 / constrained_intra=0 / bframes=3 / b_pyramid=0 / b_adapt=2 / b_bias=0 / direct=3 / wpredb=1 / wpredp=2 / keyint=250 / keyint_min=25 / scenecut=40 / rc_lookahead=50 / rc=2pass / mbtree=1 / bitrate=2050 / ratetol=1.0 / qcomp=0.60 / qpmin=10 / qpmax=51 / qpstep=4 / cplxblur=20.0 / qblur=0.5 / ip_ratio=1.40 / aq=1:1.00
Language : English

Audio
ID : 2
Format : AC-3
Format/Info : Audio Coding 3
Mode extension : CM (complete main)
Muxing mode : Header stripping
Codec ID : A_AC3
Duration : 1h 27mn
Bit rate mode : Constant
Bit rate : 448 Kbps
Channel(s) : 6 channels
Channel positions : Front: L C R, Side: L R, LFE
Sampling rate : 48.0 KHz
Bit depth : 16 bits
Compression mode : Lossy
Stream size : 280 MiB (18%)
Title : Ukrainian
Language : Ukrainian
Скріншоти





Джерело: Реліз від FireBit (вирізано російську та англійську доріжки, субтитри)
Спеціально для: Wink (1)
Особиста оцінка: 8 - мені сподобалося


 Трекер:    Зареєстрований   

Завантажити / скачати фільм українською



відео для новачків



 Зареєстрований:   2011-07-24 01:39
 Розмір:   1.53 GB 
 Оцінка фільму:   9.6/10 (Голосів: 14)
   
Інші релізи
   Священик / Priest (2011) patriot2305  8 / 1   1.46 GB   2014-02-07 13:58 
   Священик / Priest (2011) 1080p Ukr/Eng (3D) [Half OverUnder] famous37  1 / 0   5.66 GB   2013-12-07 18:56 
   Священик / Priest (2011) 720p Zeus62  1 / 0   4.29 GB   2011-09-03 13:06 
   Священик / Priest (2011) DVD5 akon111  1 / 0   3.75 GB   2011-06-04 12:52 
taras1988_2008 
Модератор розділу ТБ


З нами з: 01.05.09
Востаннє: 23.10.16
Повідомлень: 871

2011-07-24 08:57  
Цитата:
(вирізано російську та англійську доріжки, субтитри)


Мову оригіналу можна було б залишити , і субтитри теж.

Drool 
VIP


З нами з: 17.04.10
Востаннє: 10.12.16
Повідомлень: 1270

2011-07-24 09:53  
taras1988_2008 написано:
Мову оригіналу можна було б залишити , і субтитри теж.

Для цього є інші ріпи. Особисто для мене це пів гектара непотрібного баласту.

braveboy 
Відео Гуртом - команда HD
Відео Гуртом - команда HD


З нами з: 15.06.10
Востаннє: 29.10.16
Повідомлень: 958

2011-11-18 22:56  
Drool написано:
AVC


720p-mini

bot 
робот


З нами з: 30.09.07
Востаннє: 26.05.05
Повідомлень: 16054

2011-11-18 23:20  
Тему перенесено з Фільми до форуму Художні фільми в HD


urij546724

gaidamack 
Свій


З нами з: 19.07.08
Востаннє: 08.12.16
Повідомлень: 107

2014-09-12 07:30  
Станьте будь ласка на роздачу...
Ваш часовий пояс: GMT + 2 Години

Нова тема   Відповісти