Завантажити та скачати торренти українською


VA - Українські танго (золота колекція) (2005) [FLAC] | Folk

Нові коментарі

Нова тема   Відповісти
Автор Повідомлення
Anonymous 







2011-07-10 08:53  
VA - Українські танго (золота колекція) (2005) [FLAC] | Folk



Стиль: Folk
Країна: Україна
Видавець: Астра Рекордс
Пісні та їх виконавці:
    01. О, соловію (Фемій Мустафаєв)
    02. Червона троянда (Тетяна Русова)
    03. Диво-сон (Володимир Удовиченко)
    04. День з тобою (Людмила Артеменко)
    05. Танго (Естрадно-симфонічний оркестр Укр. радіо)
    06. Танго юності (Василь Бокоч)
    07. Намалюй мені ніч (Л. Чайковська)
    08. Може, я тебе вигадав (О. Скачко)
    09. Танго (Естрадно-симфонічний оркестр Укр. радіо)
    10. Повір очам (Софія Ротару)
    11. Гей-га (Василь Бокоч)
    12. Гуцулка Ксеня (Прикарпатський ансамбль 'Верховина')
    13. Танго (Валентина Купріна)
    14. Танго (Галина Войтун, Ігор Соїк)
    15. Танго без відповіді (Софія Ротару)
    16. Тихо без слів (Василь Бокоч)

Тривалість: 00:49:10
Мова: українська
Аудіо-кодек: FLAC
Бітрейт: 759 кб/с
Джерело: Інший трекер
Додаткова інформація:
Цей диск цілком спроможний сподобатися навіть тому, хто ніколи не танцював танго – природно, що балет теж, наприклад, подобається багатьом, а от танцюють чомусь далеко не всі. До речі, щодо танців. Більш-менш юних слухачів може здивувати той факт, що це – збірка танцювальної музики. Але свого часу – причому, не так вже й давно – танго було у нас суперпопулярним. Особисто у мене ці мелодії викликають цілком певні асоціації – час, проведений у міському парку культури та відпочинку. О будь-якій порі року – бо ця музика звучала там практично завжди, і практично завжди вона якось так органічно вписувалася у міський мікроклімат. А зараз навіть важко повірити, що на цій музиці виросло ціле покоління. Причому, мабуть, і не одне. Отже, слухайте, діти, і дивуйтеся. Слухайте, дорослі, і не плачте.
EAC Log

Exact Audio Copy V0.99 prebeta 5 from 4. May 2009
Отчёт EAC об извлечении, выполненном 28. апреля 2010, 23:37
Various / Українські танго
Дисковод: Optiarc DVD RW AD-7580S Adapter: 1 ID: 0
Режим чтения : Достоверность
Использование точного потока : Да
Отключение кэша аудио : Да
Использование указателей C2 : Нет
Коррекция смещения при чтении : 48
Способность читать области Lead-in и Lead-out : Нет
Заполнение пропущенных сэмплов тишиной : Да
Удаление блоков с тишиной в начале и конце : Нет
При вычислениях CRC использовались нулевые сэмплы : Да
Интерфейс : Встроенный Win32-интерфейс для Win NT/2000
Выходной формат : Внутренние WAV-операции
Формат сэмплов : 44.100 Гц; 16 бит; стерео
TOC извлечённого CD
Трек | Старт | Длительность | Начальный сектор | Конечный сектор
---------------------------------------------------------------------
1 | 0:00.00 | 3:10.02 | 0 | 14251
2 | 3:10.02 | 3:35.35 | 14252 | 30411
3 | 6:45.37 | 3:12.49 | 30412 | 44860
4 | 9:58.11 | 3:37.28 | 44861 | 61163
5 | 13:35.39 | 4:27.49 | 61164 | 81237
6 | 18:03.13 | 3:54.51 | 81238 | 98838
7 | 21:57.64 | 3:29.48 | 98839 | 114561
8 | 25:27.37 | 2:40.65 | 114562 | 126626
9 | 28:08.27 | 2:28.08 | 126627 | 137734
10 | 30:36.35 | 2:31.43 | 137735 | 149102
11 | 33:08.03 | 3:31.54 | 149103 | 164981
12 | 36:39.57 | 2:56.43 | 164982 | 178224
13 | 39:36.25 | 2:54.50 | 178225 | 191324
14 | 42:31.00 | 2:16.58 | 191325 | 201582
15 | 44:47.58 | 2:40.21 | 201583 | 213603
16 | 47:28.04 | 1:50.33 | 213604 | 221886
Характеристики диапазона извлечения и сообщения об ошибках
Выбранный диапазон
Имя файла D:\Music\Укранское танго\Various - Українські танго.wav
Пиковый уровень 98.9 %
Качество диапазона 100.0 %
CRC копии 827F7C0D
Копирование... OK
Ошибок не произошло
Конец отчёта
Якщо Ви справді бажаєте підтримати українське - після прослуховування, якщо музика вам сподобалась, придбайте ліцензійний диск. Підтримаймо вітчизняних виконавців!


Срібний реліз (на рейтинг впливає 50% завантаженого)
 Трекер:    Зареєстрований   

Завантажити / скачати українську музику



відео для новачків



 Зареєстрований:   2011-07-10 08:53
 Розмір:   282 MB 
 Оцінка музики:   10/10 (Голосів: 7)
   
Ваш часовий пояс: GMT + 2 Години

Нова тема   Відповісти