Завантажити та скачати торренти українською


Трансформери / Transformers (2007) Remux 1080p Ukr/Eng | Sub Ukr/Eng

Нові коментарі

Нова тема   Відповісти
Автор Повідомлення
Devil_my_cry 
Новенький


З нами з: 26.06.10
Востаннє: 27.11.16
Повідомлень: 22

2011-07-07 01:33  
Трансформери / Transformers (2007) Remux 1080p Ukr/Eng | Sub Ukr/Eng

Альтернативний постер
Жанр: пригодницький, бойовик, фантастика
Країна: США



Кіностудія / кінокомпанія: DreamWorks SKG, Paramount Pictures
Режисер: Michael Bay / Майкл Бей
Актори: Шайа ЛаБаф, Меган Фокс, Джош Дюамель, Тайріз Гібсон, Рейчел Тейлор, Ентоні Андерсон, Джон Войт, Джон Туртурро, Майкл О’Ніл, Кевін Данн.

Сюжет:
В один прекрасний день вся Земля дізналася про те, що агент Малдер був правий, що інопланетяни все-таки існують. Вони - роботи, які ворогують одне з одним. Їх залишилося зовсім небагато. Вони полюють за артефактом, який примудрився впасти на Землю десять тисяч років тому. Артефакт може стати причиною поневолення Всесвіту, якщо хороші роботи - Аутоботи - не знайдуть його раніше поганих роботів - Десептиконів. Існування кращого зі світів залежить від прадідушних окулярів, які зберігає у себе один американський хлопчина.


Тривалість: 02:23:27
Якість: Remux
Відео:
кодек: MPEG-4 AVC
розмір кадру: 1920x1080
бітрейт: 31.43 Mб/с, 23.976 кадр/с

Аудіо # 1:
мова: українська
переклад: професійний дубльований
кодек: 5.1
бітрейт: 448 кб/с

Аудіо # 2:
мова: англійська
переклад: оригінал
кодек: 5.1
бітрейт: 1.5 Мб/с

Аудіо # 3:
мова: англійська
переклад: FLAC, Lossless 5.1(окремим файлом)
бітрейт: 6912 кб/с

Субтитри:
мова: українська
тип: програмні (м'які)
формат:*.srt

мова: англійська
тип: програмні (м'які)
формат:*.srt
МедіаІнфо
Код:
General
Unique ID                        : 177045402204194366860041184519340951019 (0x8531B443F7E2A708878F96CC244005EB)
Complete name                    : Transformers (Remux)\Transformers (2007) Remux 1080p Ukr.Eng by devil_my_cry.mkv
Format                           : Matroska
File size                        : 33.5 GiB
Duration                         : 2h 23mn
Overall bit rate                 : 33.4 Mbps
Movie name                       : by XXXVIRUS
Encoded date                     : UTC 2011-07-26 14:31:08
Writing application              : mkvmerge v2.2.0 ('Turn It On Again') built on Mar  4 2008 12:58:26
Writing library                  : libebml v0.7.7 + libmatroska v0.8.1

Video
ID                               : 1
Format                           : AVC
Format/Info                      : Advanced Video Codec
Format profile                   : [email protected]
Format settings, CABAC           : Yes
Format settings, ReFrames        : 4 frames
Muxing mode                      : Container [email protected]
Codec ID                         : V_MPEG4/ISO/AVC
Duration                         : 2h 23mn
Bit rate mode                    : Variable
Bit rate                         : 30.8 Mbps
Maximum bit rate                 : 35.2 Mbps
Width                            : 1 920 pixels
Height                           : 1 080 pixels
Display aspect ratio             : 16:9
Frame rate                       : 23.976 fps
Standard                         : NTSC
Color space                      : YUV
Chroma subsampling               : 4:2:0
Bit depth                        : 8 bits
Scan type                        : Progressive
Bits/(Pixel*Frame)               : 0.619
Stream size                      : 30.8 GiB (92%)
Title                            : Transformers
Language                         : English
Color primaries                  : BT.709-5, BT.1361, IEC 61966-2-4, SMPTE RP177
Transfer characteristics         : BT.709-5, BT.1361
Matrix coefficients              : BT.709-5, BT.1361, IEC 61966-2-4 709, SMPTE RP177

Audio #1
ID                               : 2
Format                           : AC-3
Format/Info                      : Audio Coding 3
Mode extension                   : CM (complete main)
Codec ID                         : A_AC3
Duration                         : 2h 23mn
Bit rate mode                    : Constant
Bit rate                         : 448 Kbps
Channel(s)                       : 6 channels
Channel positions                : Front: L C R, Side: L R, LFE
Sampling rate                    : 48.0 KHz
Bit depth                        : 16 bits
Compression mode                 : Lossy
Stream size                      : 460 MiB (1%)
Title                            : 5.1 @ 448 kb/s
Language                         : Ukrainian

Audio #2
ID                               : 3
Format                           :
Format/Info                      : Digital Theater Systems
Codec ID                         : A_DTS
Duration                         : 2h 23mn
Bit rate mode                    : Constant
Bit rate                         : 1 510 Kbps
Channel(s)                       : 6 channels
Channel positions                : Front: L C R, Side: L R, LFE
Sampling rate                    : 48.0 KHz
Bit depth                        : 24 bits
Compression mode                 : Lossy
Stream size                      : 1.51 GiB (5%)
Title                            : 1.5 mbps
Language                         : English

Text #1
ID                               : 4
Format                           : UTF-8
Codec ID                         : S_TEXT/UTF8
Codec ID/Info                    : UTF-8 Plain Text
Language                         : Ukrainian

Text #2
ID                               : 5
Format                           : UTF-8
Codec ID                         : S_TEXT/UTF8
Codec ID/Info                    : UTF-8 Plain Text
Language                         : English
Скріншоти:


Особиста оцінка: 10 - Якщо ще не бачили,обов'язково подивіться!


Золотий реліз (завантажене не впливає на рейтинг)
 Трекер:    Зареєстрований   

Завантажити / скачати фільм українською



відео для новачків



 Зареєстрований:   2011-07-26 19:02
 Розмір:   37.12 GB 
 Оцінка фільму:   9.5/10 (Голосів: 21)
   
Інші релізи
Бузьок 
програми
програми


З нами з: 18.10.09
Востаннє: 27.11.16
Повідомлень: 1009

2011-07-07 10:26  
Devil_my_cry написано:
Blu-Ray Remux (1080p) Ukr/Eng(FLAC, Lossless 5.1) | Sub Eng
Просто Remux 1080p Ukr/Eng | Sub Eng
Віктор 
Відео Гуртом - субтитрування
Відео Гуртом - субтитрування


З нами з: 09.01.10
Востаннє: 04.12.16
Повідомлень: 8663

2011-07-07 11:39  
Devil_my_cry написано:
бітрейт: 640 кб/с

Звідки такий бітрейт української доріжки? На бд не було, на двд 384. І акторів будь ласка українською мовою, а не російською.

Devil_my_cry написано:
будь-ласка

Будь ласка пишеться без тире.

chaoscor 
Свій


З нами з: 17.10.10
Востаннє: 03.12.16
Повідомлень: 73

2011-07-07 17:12  
Цитата:
Будь ласка пишеться без тире.


Вибачте за втручання...але з яких пір відбулись такі зміни в українському правописі?

Devil_my_cry 
Новенький


З нами з: 26.06.10
Востаннє: 27.11.16
Повідомлень: 22

2011-07-07 17:41  
цe слово пишeться з тирe...
Jatx_11 
Відео Гуртом - фільмокрай
Відео Гуртом - фільмокрай


З нами з: 20.04.11
Востаннє: 23.10.16
Повідомлень: 700

2011-07-07 17:56  
Ні-ні, будь ласка завжди пишеться без дефісу (не тире)
Віктор 
Відео Гуртом - субтитрування
Відео Гуртом - субтитрування


З нами з: 09.01.10
Востаннє: 04.12.16
Повідомлень: 8663

2011-07-07 18:23  
Правило згідно українського правопису:
Усталене словосполучення (фразема) "будь ласка" в українській мові пишеться окремо і без дефіса та виділяється з обох боків комами.

Devil_my_cry 
Новенький


З нами з: 26.06.10
Востаннє: 27.11.16
Повідомлень: 22

2011-07-07 19:21  
Прошу вибачення!я тільки що подивився в український провопис))
Jatx_11 
Відео Гуртом - фільмокрай
Відео Гуртом - фільмокрай


З нами з: 20.04.11
Востаннє: 23.10.16
Повідомлень: 700

2011-07-07 19:50  
w2958l написано:
а виділяється з обох боків комами.

Не завжди. Якщо воно стоїть на початку речення Happy

chaoscor 
Свій


З нами з: 17.10.10
Востаннє: 03.12.16
Повідомлень: 73

2011-07-07 20:40  
Happy

Чесно кажучи, - спірне питання... Можливо у мене була неграмотна вчителька української або таки змінились правила. Тут так часто зустрічаються помилки в словах, що цю можна було б і не помічати.

The_Marlboro 
Відео Гуртом - субтитрування
Відео Гуртом - субтитрування


З нами з: 23.05.10
Востаннє: 04.12.16
Повідомлень: 2854

2011-07-07 20:58  
w2958l написано:
виділяється з обох боків комами.

chaoscor написано:
Чесно кажучи, - спірне питання...


нормальне питання, Будь ласка - вставне слово і виділяється комами, але ми в інтернеті тут по різному буває)))

DiGen 
Модератор HD та координатор Команди HD
Модератор HD та координатор Команди HD


З нами з: 12.11.09
Востаннє: 24.06.13
Повідомлень: 1452

2011-07-09 21:41  
А що в третьої доріжки 0-вий бітрейт?
Devil_my_cry 
Новенький


З нами з: 26.06.10
Востаннє: 27.11.16
Повідомлень: 22

2011-07-10 17:58  
Забув, вибачте вже ставлюHappy
xside08 
Свій


З нами з: 27.10.10
Востаннє: 16.09.16
Повідомлень: 87

2011-07-17 14:58  
на рахунок того ,як пишеться словосполучення "будь ласка" , то я не думаю , що w2958l хотів когось образити , це лиш маленька заувага .
Так ми в і-неті , але краще раз когось виправити , щоб в наступних випадках він не помилявся , ніж щоб ця помилка повторялася ...

p.s. я і сам можу помилитися Wink (1)

dj.zubna.pasta 
Свій


З нами з: 03.12.10
Востаннє: 14.07.16
Повідомлень: 98

2011-11-19 12:30  
а можна семпл до цього кіно?
theory11 
Частий відвідувач


З нами з: 16.11.11
Востаннє: 27.01.13
Повідомлень: 38

2011-11-19 21:34  
Devil_my_cry
Ви повині повернутися на роздачу тут аж 37.12 GB !

Michael093 
Новенький


З нами з: 24.04.11
Востаннє: 27.11.16
Повідомлень: 1

2012-06-03 20:31  
Шановне панство, станьте на роздачу Wink (2)
Did Kokos 
VIP


З нами з: 27.05.13
Востаннє: 05.12.16
Повідомлень: 347

2013-07-05 00:21  
Українська доріжка справді має 448 кб/с ??
leroykendall 
Модератор HD


З нами з: 03.01.11
Востаннє: 20.11.16
Повідомлень: 749

2013-07-05 07:00  
Did Kokos
Так, справді.

ZLO666ZLO666 
Новенький


З нами з: 26.05.11
Востаннє: 30.11.16
Повідомлень: 9

2015-04-20 18:47  
Як зрозуміти те, що за замовчуванням відтворюється англійська мова та субтитри, хоча в описанні українська? Чи це тільки в мене глюк!
Ваш часовий пояс: GMT + 2 Години

Нова тема   Відповісти