Завантажити та скачати торренти українською


Amurekimuri - Amurekimuri (2010) [FLAC] | Dream Rock / Psyhedelic Rock

Нові коментарі

Нова тема   Відповісти
Останній раз роздавалося ssTAss (2016-11-27)
Автор Повідомлення
ssTAss 
Модератор музики


З нами з: 05.07.08
Востаннє: 03.12.16
Повідомлень: 10932

2011-07-04 23:47  
Amurekimuri - Amurekimuri (2010) [FLAC] | Dream Rock / Psyhedelic Rock



Стиль: Rock, Indie, Powerpop, Shoegaze
Країна, місто: Україна, Одеса
Сайти: Офіційний сайт
Видавець: Cardiowave
Виконавці:
Олена Войнаровська – вокал, гітара, синтезатор, музика (1–3, 7, 8, 10, 11, 13–15), вірші (2, 10, 11, 13, 14), аранжування (1–3, 5, 7, 8, 10, 13, 15)
Олексій Довгалєв – бас-гітара, вокал, гітара, музика (1, 3, 5, 7, 8, 13, 15), вірші (5), аранжування (1–3, 5, 7, 8, 10, 13–15)
Андрій Басов – гітара, музика (1, 3, 7, 8, 13, 15), аранжування (1–3, 5, 7, 8, 10, 13, 15)
Олексій Ткачевський – ударні, музика (1, 3, 7, 8, 13, 15), аранжування (1–3, 5, 7, 8, 10, 13, 15)
Павло Голубовський – гітара, програмінг, музика (1, 3, 4, 7, 8, 13, 15), аранжування (1–5, 7, 8, 10, 11, 13, 15)
Андрій Охрамович – труба (10)
Єгор Басов – голос (6, 16)
Пісні:
    01. The Smile (03:28)
    02. April Rain (04:45)
    03. Love's Philosophy (04:09)
    04. Not You Not Me (01:18)
    05. I Don't Wanna Lose You (04:36)
    06. Kukawaka (01:49)
    07. On Leaving Some Friends At An Early Hour (04:52)
    08. In The Back Of My Mind (03:32)
    09. As Soon As (01:12)
    10. Knock Knock Knock (03:26)
    11. My Ghostly Happiness (03:58)
    12. Beautiful And Clean (00:53)
    13. Daisies (03:45)
    14. Dead Tree (03:55)
    15. Good Night (04:17)
    16. People And Dolphins (00:50)
log

Exact Audio Copy V0.99 prebeta 4 from 23. January 2008

Отчёт EAC об извлечении, выполненном 3. октября 2010, 17:53

Amurekimuri / Amurekimuri

Дисковод: LITE-ON DVDRW LH-20A1S Adapter: 2 ID: 0

Режим чтения : Достоверность
Использование точного потока : Да
Отключение кэша аудио : Да
Использование указателей C2 : Нет

Коррекция смещения при чтении : 6
Способность читать области Lead-in и Lead-out : Нет
Заполнение пропущенных сэмплов тишиной : Да
Удаление блоков с тишиной в начале и конце : Нет
При вычислениях CRC использовались нулевые сэмплы : Да
Интерфейс : Встроенный Win32-интерфейс для Win NT/2000

Выходной формат : Внутренние WAV-операции
Формат сэмплов : 44.100 Гц; 16 бит; стерео

TOC извлечённого CD

Трек | Старт | Длительность | Начальный сектор | Конечный сектор
---------------------------------------------------------------------
1 | 0:00.00 | 3:27.59 | 0 | 15583
2 | 3:27.59 | 4:44.43 | 15584 | 36926
3 | 8:12.27 | 4:08.57 | 36927 | 55583
4 | 12:21.09 | 1:17.59 | 55584 | 61417
5 | 13:38.68 | 4:35.43 | 61418 | 82085
6 | 18:14.36 | 1:48.35 | 82086 | 90220
7 | 20:02.71 | 4:52.19 | 90221 | 112139
8 | 24:55.15 | 3:31.55 | 112140 | 128019
9 | 28:26.70 | 1:11.39 | 128020 | 133383
10 | 29:38.34 | 3:26.30 | 133384 | 148863
11 | 33:04.64 | 3:57.63 | 148864 | 166701
12 | 37:02.52 | 0:52.52 | 166702 | 170653
13 | 37:55.29 | 3:44.60 | 170654 | 187513
14 | 41:40.14 | 3:54.55 | 187514 | 205118
15 | 45:34.69 | 4:16.69 | 205119 | 224387
16 | 49:51.63 | 0:50.04 | 224388 | 228141

Характеристики диапазона извлечения и сообщения об ошибках

Выбранный диапазон

Имя файла D:\EAC\Amurekimuri - Amurekimuri\Amurekimuri - Amurekimuri.wav

Пиковый уровень 100.0 %
Качество диапазона 100.0 %
CRC теста 393B9CF0
CRC копии 393B9CF0
Копирование... OK

Ошибок не произошло

AccurateRip: сводка

Трек 1 нет в базе данных
Трек 2 нет в базе данных
Трек 3 нет в базе данных
Трек 4 нет в базе данных
Трек 5 нет в базе данных
Трек 6 нет в базе данных
Трек 7 нет в базе данных
Трек 8 нет в базе данных
Трек 9 нет в базе данных
Трек 10 нет в базе данных
Трек 11 нет в базе данных
Трек 12 нет в базе данных
Трек 13 нет в базе данных
Трек 14 нет в базе данных
Трек 15 нет в базе данных
Трек 16 нет в базе данных

Ни одного трека нет в базе AccurateRip

Конец отчёта
fooCDtect

fooCDtect - foobar2000 + auCDtect, baralgin.

auCDtect: CD records authenticity detector, version 0.8.2
Copyright (c) 2004 Oleg Berngardt. All rights reserved.
Copyright (c) 2004 Alexander Djourik. All rights reserved.

mode: 0

=======================================================
Track: 01 - The Smile
Quality: CDDA, 100%
=======================================================
Track: 02 - April Rain
Quality: CDDA, 100%
=======================================================
Track: 03 - Love's Philosophy
Quality: CDDA, 100%
=======================================================
Track: 04 - Not You Not Me
Quality: CDDA, 100%
=======================================================
Track: 05 - I Don't Wanna Lose You
Quality: CDDA, 100%
=======================================================
Track: 06 - Kukawaka
Quality: CDDA, 94%
=======================================================
Track: 07 - On Leaving Some Friends At An Early Hour
Quality: CDDA, 100%
=======================================================
Track: 08 - In The Back Of My Mind
Quality: CDDA, 100%
=======================================================
Track: 09 - As Soon As
Quality: CDDA, 100%
=======================================================
Track: 10 - Knock Knock Knock
Quality: CDDA, 100%
=======================================================
Track: 11 - My Ghostly Happiness
Quality: CDDA, 99%
=======================================================
Track: 12 - Beautiful And Clean
Quality: CDDA, 100%
=======================================================
Track: 13 - Daises
Quality: CDDA, 100%
=======================================================
Track: 14 - Dead Tree
Quality: CDDA, 100%
=======================================================
Track: 15 - Good Night
Quality: CDDA, 100%
=======================================================
Track: 16 - People And Dolphins
Quality: CDDA, 58%
=======================================================
Тривалість: 00:50:42
Мова: англійська (1,2,3,5,7,10,11,13), інструментальні композиції (4,6,9,12), російська (дитячий голос) (16)
Аудіо-кодек: FLAC
Бітрейт: 998 кб/с
Джерело: інший трекер
Додаткова інформація:
Альбом Amurekimuri – немов скриня зі скарбами, до якої з любов’ю та ніжністю складено : вірші англійських поетів-романтиків, посічені подряпинами від частого прослуховування компакт-диски пост-панк легенд 80-х, груба пачка дитячих фотографій, вирізки із журналів із зображеннями акторів кіно, і найбільш важливий компонент колекції – амурні мемуари власне учасників групи.
В основі звукового полотна альбому – романтичний інді-рок, довкола якого життєлюбно в’ються пагони шугейзу, етеріалу, нью вейву та дарквейву (в комплекті дзвінкі від реверберації та розмазані багаторазовими ділеями гітари, «науково-фантастичні» синтезаторні партії, бадьорі позивні горну, сигналізуючі органчики, ледве вловні цитати).
Загальну музичну картину доповнюють абстрактно-психоделічні інтерлюдії.


Якщо Ви справді бажаєте підтримати українське - після прослуховування, якщо музика вам сподобалась,
придбайте ліцензійний диск.
Підтримаймо вітчизняних виконавців!


Срібний реліз (на рейтинг впливає 50% завантаженого)
 Трекер:    Зареєстрований   

Завантажити / скачати українську музику



відео для новачків



 Зареєстрований:   2011-07-04 23:47
 Розмір:   362 MB 
 Оцінка музики:   6.1/10 (Голосів: 7)
   
Lev 
VIP


З нами з: 14.10.09
Востаннє: 28.11.16
Повідомлень: 1819

2011-07-09 02:53  
дуже симпатичний альбом
Ваш часовий пояс: GMT + 2 Години

Нова тема   Відповісти