Завантажити та скачати торренти українською


Фабула - На краю (2011) [FLAC] | Nu-Metal

Нові коментарі

Нова тема   Відповісти
Останній раз роздавалося famous37 (2016-12-06)
Автор Повідомлення
willian 
Свій


З нами з: 07.02.09
Востаннє: 06.12.16
Повідомлень: 114

2011-07-01 17:30  
Фабула - На краю (2011) [FLAC] | Nu-Metal



Стиль: Nu-Metal
Країна, місто: Україна, Київ
Сайти: Офіційний сайт
Видавець: COMP Music
Виконавці:

Ірина Макуха - вокал
Павло Авєрін - гітара
Сергій Кордюк - гітара
Вадим Серогодський - ударні, аранжування
Ярослав Товарянський - бас

Пісні:
    01. Інтро
    02. Фабула
    03. Колиска свідомості
    04. На краю
    05. Забуте серце
    06. Вічність
    07. Тихий крик
    08. Темні погляди

Тривалість: 00:37:27
Мова: українська
Аудіо-кодек: FLAC
Бітрейт: ~1000 кб/с
Джерело: Власний ріп
Звіт EAC
Exact Audio Copy V1.0 beta 2 from 29. April 2011

Отчёт EAC об извлечении, выполненном 1. июля 2011, 18:09

Фабула / На краю

Дисковод: HL-DT-STDVDRAM GSA-H42N Adapter: 0 ID: 1

Режим чтения : Достоверность
Использование точного потока : Да
Отключение кэша аудио : Да
Использование указателей C2 : Нет

Коррекция смещения при чтении : 0
Способность читать области Lead-in и Lead-out : Нет
Заполнение пропущенных сэмплов тишиной : Да
Удаление блоков с тишиной в начале и конце : Нет
При вычислениях CRC использовались нулевые сэмплы : Нет
Интерфейс : Встроенный Win32-интерфейс для Win NT/2000
Обработка зазоров : Добавлено к предыдущему треку

Выходной формат : Пользовательский кодировщик
Выбранный битрейт : 768 kBit/s
Качество : Высокий
Добавление ID3-тега : Нет
Утилита сжатия : C:\Program Files\Exact Audio Copy\FLAC\FLAC.EXE
Дополнительные параметры : -8 -V -T "ARTIST=%artist%" -T "TITLE=%title%" -T "ALBUM=%albumtitle%" -T "DATE=%year%" -T "TRACKNUMBER=%tracknr%" -T "GENRE=%genre%" -T "COMMENT=%comment%" -T "BAND=%albuminterpret%" -T "COMPOSER=%composer%" %haslyrics%--tag-from-

TOC извлечённого CD

Трек | Старт | Длительность | Начальный сектор | Конечный сектор
---------------------------------------------------------------------
1 | 0:00.00 | 2:34.00 | 0 | 11549
2 | 2:34.00 | 4:40.24 | 11550 | 32573
3 | 7:14.24 | 5:22.07 | 32574 | 56730
4 | 12:36.31 | 6:00.56 | 56731 | 83786
5 | 18:37.12 | 3:52.14 | 83787 | 101200
6 | 22:29.26 | 5:27.25 | 101201 | 125750
7 | 27:56.51 | 3:36.00 | 125751 | 141950
8 | 31:32.51 | 5:54.43 | 141951 | 168543

Трек 1

Имя файла D:\Music\1 Інтро.wav

Длина предзазора 0:00:02.00

Пиковый уровень 77.4 %
Скорость извлечения 3.9 X
Качество трека 100.0 %
CRC теста 3576DD03
CRC копии 3576DD03
Копирование... OK

Трек 2

Имя файла D:\Music\2 Фабула.wav

Пиковый уровень 100.0 %
Скорость извлечения 4.9 X
Качество трека 100.0 %
CRC теста 971B265F
CRC копии 971B265F
Копирование... OK

Трек 3

Имя файла D:\Music\3 Колиска свідомості.wav

Пиковый уровень 100.0 %
Скорость извлечения 5.6 X
Качество трека 100.0 %
CRC теста DFF74A1E
CRC копии DFF74A1E
Копирование... OK

Трек 4

Имя файла D:\Music\4 На краю.wav

Пиковый уровень 100.0 %
Скорость извлечения 6.2 X
Качество трека 100.0 %
CRC теста DB2598D4
CRC копии DB2598D4
Копирование... OK

Трек 5

Имя файла D:\Music\5 Забуте серце.wav

Пиковый уровень 100.0 %
Скорость извлечения 6.5 X
Качество трека 100.0 %
CRC теста A51A7EF0
CRC копии A51A7EF0
Копирование... OK

Трек 6

Имя файла D:\Music\6 Вічність.wav

Пиковый уровень 100.0 %
Скорость извлечения 6.0 X
Качество трека 99.9 %
CRC теста D18BE8F0
CRC копии D18BE8F0
Копирование... OK

Трек 7

Имя файла D:\Music\7 Тихий крик.wav

Пиковый уровень 100.0 %
Скорость извлечения 6.8 X
Качество трека 100.0 %
CRC теста 60F46DC5
CRC копии 60F46DC5
Копирование... OK

Трек 8

Имя файла D:\Music\8 Темні погляди.wav

Пиковый уровень 100.0 %
Скорость извлечения 6.9 X
Качество трека 99.9 %
CRC теста 68C2A967
CRC копии 68C2A967
Копирование... OK

Ошибок не произошло

Конец отчёта


Срібний реліз (на рейтинг впливає 50% завантаженого)
 Трекер:    Зареєстрований   

Завантажити / скачати українську музику



відео для новачків



 Зареєстрований:   2011-07-01 17:36
 Розмір:   272 MB 
 Оцінка музики:   9.6/10 (Голосів: 11)
   
ssTAss 
Модератор музики


З нами з: 05.07.08
Востаннє: 06.12.16
Повідомлень: 10946

2011-07-01 18:14  
додайте під спойлер будь ласка вміст лог-файлу
willian написано:
Джерело: Власний ріп

скани зробити можете?

Додано через 35 секунд:

ще одне, велике прохання прибрати з підпису посилання на сторонній ресурс

willian 
Свій


З нами з: 07.02.09
Востаннє: 06.12.16
Повідомлень: 114

2011-07-01 18:48  
ssTAss написано:
скани зробити можете?

нажаль - ні Sad (1)

лог файл додав...

ssTAss 
Модератор музики


З нами з: 05.07.08
Востаннє: 06.12.16
Повідомлень: 10946

2011-07-01 19:20  
на майбутнє
willian написано:
Коррекция смещения при чтении : 0

кажись, +102, але краще перевірте
willian написано:
При вычислениях CRC использовались нулевые сэмплы : Нет

тут має бути: так

willian написано:
нажаль - ні

шкода
за реліз - дякую, вже слухаю
до речі, ось
fooCDtect

fooCDtect - foobar2000 + auCDtect, baralgin.

auCDtect: CD records authenticity detector, version 0.8.2
Copyright (c) 2004 Oleg Berngardt. All rights reserved.
Copyright (c) 2004 Alexander Djourik. All rights reserved.

mode: 0

=======================================================
Track: 01-08 - Інтро
Quality: CDDA, 100%
=======================================================
Track: 02-08 - Фабула
Quality: CDDA, 100%
=======================================================
Track: 03-08 - Колиска свідомості
Quality: CDDA, 100%
=======================================================
Track: 04-08 - На краю
Quality: CDDA, 100%
=======================================================
Track: 05-08 - Забуте серце
Quality: CDDA, 100%
=======================================================
Track: 06-08 - Вічність
Quality: CDDA, 100%
=======================================================
Track: 07-08 - Тихий крик
Quality: CDDA, 100%
=======================================================
Track: 08-08 - Темні погляди
Quality: CDDA, 100%
=======================================================

willian 
Свій


З нами з: 07.02.09
Востаннє: 06.12.16
Повідомлень: 114

2011-07-01 19:22  
ssTAss, дякую за пораду! може краще переробити? мені не важко, якщо це важливо...
The_Marlboro 
Відео Гуртом - субтитрування
Відео Гуртом - субтитрування


З нами з: 23.05.10
Востаннє: 05.12.16
Повідомлень: 2854

2011-07-01 19:52  
willian написано:
Фабула - На краю (2011) [FLAC] | Nu-Metal

willian написано:
Стиль: Rock


то який стиль?
мп3 буде?

willian 
Свій


З нами з: 07.02.09
Востаннє: 06.12.16
Повідомлень: 114

2011-07-01 19:56  
TheMarlboro, від мене точно - ні, може хтось згодом зробить
iwan wan 
VIP


З нами з: 01.10.09
Востаннє: 06.12.16
Повідомлень: 1760

2011-07-01 20:29  
willian написано:
TheMarlboro, від мене точно - ні, може хтось згодом зробить


Можу зробити

dimianstudio 
Новенький


З нами з: 02.07.11
Востаннє: 02.01.12
Повідомлень: 2

2011-07-02 19:01  
iwan wan

Зроби будь ласка скани))

iwan wan 
VIP


З нами з: 01.10.09
Востаннє: 06.12.16
Повідомлень: 1760

2011-07-02 20:03  
TheMarlboro ось в мр3

dimianstudio написано:

iwan wan

Зроби будь ласка скани


нажаль скани зробити не можу

POMEO 
Відео Гуртом - запис з ТБ
Відео Гуртом - запис з ТБ


З нами з: 01.07.08
Востаннє: 06.12.16
Повідомлень: 785

2011-07-20 18:03  
Якщо ще актуально, то можу зробити скани (там буклета нема - розгортаючийся діджіпак)
ssTAss 
Модератор музики


З нами з: 05.07.08
Востаннє: 06.12.16
Повідомлень: 10946

2011-07-20 22:04  
POMEO написано:
Якщо ще актуально, то можу зробити скани

актуально

POMEO 
Відео Гуртом - запис з ТБ
Відео Гуртом - запис з ТБ


З нами з: 01.07.08
Востаннє: 06.12.16
Повідомлень: 785

2011-07-21 00:10  
VIgor84 
Частий відвідувач


З нами з: 31.12.10
Востаннє: 05.12.16
Повідомлень: 32

2011-08-01 17:25  
Давно шукав цей гурт. А тут ще й .flack. Дякую автору.
Ваш часовий пояс: GMT + 2 Години

Нова тема   Відповісти