Завантажити та скачати торренти українською


Павло Табаков - Тільки ти моя (2007) [FLAC] | Pop

Нові коментарі

Нова тема   Відповісти
Останній раз роздавалося Icebird (2016-12-08)
Автор Повідомлення
ssTAss 
Модератор музики


З нами з: 05.07.08
Востаннє: 08.12.16
Повідомлень: 10947

2011-06-28 20:28  
Павло Табаков - Тільки ти моя (2007) [FLAC] | Pop



Стиль: Pop
Країна, місто: Україна, Львів
Сайти: Офіційний сайт
Видавець: Астра Рекордс
Виконавці:
Павло Табаков


Павло Табаков народився 27.04.1978 р. Закінчив Львівське музично-педагогічне училище і Львівську музичну академію ім. М. Лисенка (клас акордеону; грає також на фортепіано та гітарі). Працював у колективі "Менестрелі", який проіснував шість років.
Три з половиною роки – соліст і аранжувальник октету класичної та народної музики "Орфей". Із "Орфеєм" об'їздив усю Європу, виступав на фестивалях та концертах в Англії, Швейцарії, Голландії, Німеччині та Польщі. Хлопці випустили три диски: духовна музика, український фольклор і світові хіти.
У джаз-проект Colored shadows Павло був запрошений як джазовий соліст, і співпрацював із солісткою цього гурту Брією Блессінг (USA), котра живе цією музикою. Він викладає музику та вокал у Львівській фінансовій академії. Володіє польською, англійською та французькою.
Проект "Шанс" дав Павлові Табакову можливість засвітитися перед публікою, показати, що у Львові не зникли ще здібні співаки – і подивитися на шоу-бізнес із висоти столичних сцен.

На "Шансі" Павло Табаков виконав арію Le temps des cathedrale з мюзиклу "Notre Dame de Paris". Понад 132 000 мешканців України проголосували за успішний виступ Павла Табакова...
Пісні:
    1. Тільки ти моя
    2. Якщо тільки ти захочеш
    3. Лети!!!
    4. Про тебе думаю
    5. Загублені слова
    6. From souvenirs to souvenirs
    7. Запитай
    8. Vivo per lei (дует з Н. Валевською)
    9. Параноя
    10. Le temps des cathedrals
    11. Tu et mienne (Тільки ти моя)
    Відео: (в роздачі відсутнє)
    12. Тільки ти моя
log

Exact Audio Copy V0.99 prebeta 4 from 23. January 2008

EAC extraction logfile from 16. January 2009, 14:19

Павло Табаков / Тільки ти моя

Used drive : HL-DT-STDVDRAM GSA-4163B Adapter: 0 ID: 0

Read mode : Secure
Utilize accurate stream : Yes
Defeat audio cache : Yes
Make use of C2 pointers : No

Read offset correction : 667
Overread into Lead-In and Lead-Out : No
Fill up missing offset samples with silence : Yes
Delete leading and trailing silent blocks : No
Null samples used in CRC calculations : Yes
Used interface : Installed external ASPI interface

Used output format : Internal WAV Routines
Sample format : 44.100 Hz; 16 Bit; Stereo

TOC of the extracted CD

Track | Start | Length | Start sector | End sector
---------------------------------------------------------
1 | 0:00.00 | 4:17.31 | 0 | 19305
2 | 4:17.31 | 3:52.72 | 19306 | 36777
3 | 8:10.28 | 3:35.15 | 36778 | 52917
4 | 11:45.43 | 3:13.18 | 52918 | 67410
5 | 14:58.61 | 5:01.51 | 67411 | 90036
6 | 20:00.37 | 3:34.31 | 90037 | 106117
7 | 23:34.68 | 3:58.36 | 106118 | 124003
8 | 27:33.29 | 4:27.58 | 124004 | 144086
9 | 32:01.12 | 3:52.16 | 144087 | 161502
10 | 35:53.28 | 3:18.73 | 161503 | 176425
11 | 39:12.26 | 4:17.08 | 176426 | 195708
12 | 46:01.34 | 16:40.30 | 207109 | 282138

Range status and errors

Selected range

Filename E:\My own private\music\Павло Табаков - Тільки ти моя.wav

Peak level 95.3 %
Range quality 100.0 %
Copy CRC E035381F
Copy OK

No errors occurred

End of status report
fooCDtect

fooCDtect - foobar2000 + auCDtect, baralgin.

auCDtect: CD records authenticity detector, version 0.8.2
Copyright (c) 2004 Oleg Berngardt. All rights reserved.
Copyright (c) 2004 Alexander Djourik. All rights reserved.

mode: 0

=======================================================
Track: 01 - Тільки ти моя
Quality: CDDA, 100%
=======================================================
Track: 02 - Якщо тільки ти захочеш
Quality: CDDA, 100%
=======================================================
Track: 03 - Лети!!!
Quality: CDDA, 100%
=======================================================
Track: 04 - Про тебе думаю
Quality: CDDA, 100%
=======================================================
Track: 05 - Загублені слова
Quality: CDDA, 94%
=======================================================
Track: 06 - From souvenirs to souvenirs
Quality: CDDA, 100%
=======================================================
Track: 07 - Запитай
Quality: CDDA, 99%
=======================================================
Track: 08 - Vivo per lei (дует з Н.Валевською)
Quality: CDDA, 100%
=======================================================
Track: 09 - Параноя
Quality: CDDA, 100%
=======================================================
Track: 10 - Le temps des cathedrals
Quality: CDDA, 100%
=======================================================
Track: 11 - Tu et mienne (Тільки ти моя)
Quality: CDDA, 100%
=======================================================
Тривалість: 00:43:29
Мова: українська (1-5, 7, 9), французька (6, 10, 11), італійська (8)
Аудіо-кодек: FLAC
Бітрейт: 932 кб/с
Джерело: інший трекер
Додаткова інформація:
Як відомо, Павло Табаков є одним з переможців проекту "Шанс". Знадобився певний час, аби успішна участь у проекті призвела-таки до появи дебютного альбому – але нарешті це сталося. І можна бути певним, що альбом "Тільки ти моя" порадує вірних шанувальників Табакова – і здобуде йому шанувальників нових. Як і обіцяв, він пропонує якісну поп-музику, варту уваги. Зрештою, музичний досвід цього співака є не таким вже й малим – він виконував і класичну, і народну музику, мав відношення навіть і до джазу. Власне, саме тому й слід було чекати, що в цьому випадку справа не обмежиться якимсь середнім рівнем. В принципі, так і сталося. Приємно бачити, що досвід занурення в поп-музику не став негативним – Павло Табаков має дійсно гарний голос, і вміє ним користуватися. Крім того, і аранжування та настрої пісень у дебютному альбомі не є одноманітними – співак легко переходить від ніжної лірики до запального танцю, і всюди виглядає переконливо. Хоча в баладах, звичайно, голос розкривається більш яскраво. І саме вони дають можливість сказати: схоже, у Олександра Пономарьова з’являється на нашій естраді достойний колега-супротивник...


Якщо Ви справді бажаєте підтримати українське - після прослуховування, якщо музика вам сподобалась,
придбайте ліцензійний диск.
Підтримаймо вітчизняних виконавців!


Срібний реліз (на рейтинг впливає 50% завантаженого)
 Трекер:    Зареєстрований   

Завантажити / скачати українську музику



відео для новачків



 Зареєстрований:   2011-06-28 20:28
 Розмір:   290 MB 
 Оцінка музики:   7.8/10 (Голосів: 12)
   
ssTAss 
Модератор музики


З нами з: 05.07.08
Востаннє: 08.12.16
Повідомлень: 10947

2011-06-28 20:29  

Ваш часовий пояс: GMT + 2 Години

Нова тема   Відповісти