Завантажити та скачати торренти українською


Віктор Павлік - Коломийки. Весiлля в Карпатах (2005) [FLAC] | Folk

Нові коментарі

Нова тема   Відповісти
Автор Повідомлення
ssTAss 
Модератор музики


З нами з: 05.07.08
Востаннє: 06.12.16
Повідомлень: 10946

2011-06-20 15:49  
Віктор Павлік - Коломийки. Весiлля в Карпатах (2005) [FLAC] | Folk



Стиль: Pop Folk
Країна, місто: Україна, м. Теребовля Тернопільської області.
Сайти: Офіційний сайт
Видавець: СТУДІЯ 6 СЕКУНД
Виконавці:
Biктop Павлік, Олексій Глизін
Пісні:
    1. Теща
    2. Весілля в Карпатах
    3. Наречена
    4. Коломийки 2005
    5. Пальчик
    6. По садочку ходжу
    7. Ой, там на горі
    8. Дівчина Олечка
    9. Горобина
    10. Намалюй мені зоряну ніч
    11. Зорепад
    12. Ой, чий то кінь стоїть
    13. Чорнобривці (дует з О.Глизіним)
    14. Кохайте жінку
    15. Чорна хмара, біла хмара
    16. За нашов стодолов
log

Exact Audio Copy V0.99 prebeta 4 from 23. January 2008

Отчёт EAC об извлечении, выполненном 6. июля 2010, 12:36

?I???? ????I? / ????????? ???i??? ? ????????

Дисковод: XV8552Z UHA239E Adapter: 6 ID: 0

Режим чтения : Скоростной

Коррекция смещения при чтении : 0
Способность читать области Lead-in и Lead-out : Нет
Заполнение пропущенных сэмплов тишиной : Да
Удаление блоков с тишиной в начале и конце : Нет
При вычислениях CRC использовались нулевые сэмплы : Нет
Интерфейс : Встроенный Win32-интерфейс для Win NT/2000

Выходной формат : Внутренние WAV-операции
Формат сэмплов : 44.100 Гц; 16 бит; стерео

TOC извлечённого CD

Трек | Старт | Длительность | Начальный сектор | Конечный сектор
---------------------------------------------------------------------
1 | 0:00.00 | 4:55.48 | 0 | 22172
2 | 4:55.48 | 4:20.21 | 22173 | 41693
3 | 9:15.69 | 4:40.05 | 41694 | 62698
4 | 13:55.74 | 3:06.63 | 62699 | 76711
5 | 17:02.62 | 3:26.23 | 76712 | 92184
6 | 20:29.10 | 5:29.44 | 92185 | 116903
7 | 25:58.54 | 3:32.10 | 116904 | 132813
8 | 29:30.64 | 3:17.20 | 132814 | 147608
9 | 32:48.09 | 4:23.36 | 147609 | 167369
10 | 37:11.45 | 4:03.40 | 167370 | 185634
11 | 41:15.10 | 3:19.31 | 185635 | 200590
12 | 44:34.41 | 3:51.39 | 200591 | 217954
13 | 48:26.05 | 5:01.47 | 217955 | 240576
14 | 53:27.52 | 2:50.05 | 240577 | 253331
15 | 56:17.57 | 4:02.14 | 253332 | 271495
16 | 60:19.71 | 3:46.63 | 271496 | 288508

Характеристики диапазона извлечения и сообщения об ошибках

Выбранный диапазон

Имя файла C:\Documents and Settings\Администратор\Мои документы\Моя музыка\I I - i.wav

Проблемы синхронизации 0:02:22

Пиковый уровень 100.0 %
CRC копии F9209E75
Копирование завершено

Ошибок не произошло

Конец отчёта
fooCDtect

fooCDtect - foobar2000 + auCDtect, baralgin.

auCDtect: CD records authenticity detector, version 0.8.2
Copyright (c) 2004 Oleg Berngardt. All rights reserved.
Copyright (c) 2004 Alexander Djourik. All rights reserved.

mode: 0

=======================================================
Track: 01 - Теща
Quality: CDDA, 100%
=======================================================
Track: 02 - Весiлля в Карпатах
Quality: CDDA, 100%
=======================================================
Track: 03 - Наречена
Quality: CDDA, 99%
=======================================================
Track: 04 - Коломийки 2005
Quality: CDDA, 100%
=======================================================
Track: 05 - Пальчик
Quality: CDDA, 100%
=======================================================
Track: 06 - По садочку ходжу
Quality: CDDA, 100%
=======================================================
Track: 07 - Ой, там на горi
Quality: CDDA, 100%
=======================================================
Track: 08 - Дiвчина Олечка
Quality: CDDA, 100%
=======================================================
Track: 09 - Горобина
Quality: CDDA, 99%
=======================================================
Track: 10 - Намалюй менi зоряну нiч
Quality: CDDA, 99%
=======================================================
Track: 11 - Зорепад
Quality: CDDA, 100%
=======================================================
Track: 12 - Ой, чий то кiнь стоїть
Quality: CDDA, 99%
=======================================================
Track: 13 - Чорнобривцi (дует з О.Глизiним)
Quality: CDDA, 100%
=======================================================
Track: 14 - Кохайте жiнку
Quality: CDDA, 99%
=======================================================
Track: 15 - Чорна хмара, бiла хмара
Quality: CDDA, 100%
=======================================================
Track: 16 - За нашов стодолов
Quality: CDDA, 100%
=======================================================
Тривалість: 01:04:07
Мова: українська
Аудіо-кодек: FLAC
Бітрейт: 1026 кб/с
Джерело: інтернет
Додаткова інформація:
Коломийки - коротенькі пісеньки, що часто використовуются як приспівки до танцю, але також можуть виконуватись не залежно від нього. Коломийки часто об’єднуються у в’язанки, які не мають сталого змісту, а залежать від вподобань виконавця та обставин виконання. Яким би важким не було повсякдення, у коломийках воно завжди оспіване в жартівливому та веселому тоні.
Справжня коломийка має спеціальну будову - вона повинна складатись з 2 рядків, так щоб у кожному рядку було 14 складів. Преший рядок практично завжди підсилює значення думки, висловленої в другому рядку.


Якщо Ви справді бажаєте підтримати українське - після прослуховування, якщо музика вам сподобалась,
придбайте ліцензійний диск.
Підтримаймо вітчизняних виконавців!


Срібний реліз (на рейтинг впливає 50% завантаженого)
 Трекер:    Зареєстрований   

Завантажити / скачати українську музику



відео для новачків



 Зареєстрований:   2011-06-20 15:49
 Розмір:   471 MB 
 Оцінка музики:   8.8/10 (Голосів: 22)
   
pollonez 
Новенький


З нами з: 28.07.13
Востаннє: 04.12.16
Повідомлень: 1

2016-08-08 12:53  
одним файлом? а треки перемикати можна? дякую
Ваш часовий пояс: GMT + 2 Години

Нова тема   Відповісти