Завантажити та скачати торренти українською


Львівські музики | Колекція (2 альбоми) (2003-2006) [FLAC] | Folk / Ethno

Нові коментарі

Нова тема   Відповісти
Автор Повідомлення
maxnet 
Частий відвідувач


З нами з: 13.01.10
Востаннє: 20.10.16
Повідомлень: 38

2011-06-17 10:25  
Львівські музики | Колекція (2 альбоми) (2003-2006) [FLAC] | Folk / Ethno



Стиль: Folk Ethno
Країна, місто: Україна, Львів
Сайти: Офіційний сайт
Видавець: Gold Lion, Ліда
Виконавці:
Володимир Ковальчук - акордіон, клавіші, сопілка, вокал, музичний керівник
Богдан Жовтуля - скрипка, бубенки, гітара, вокал.
Тарас Тимошенко - гітара, труба, клавіші, вокал.
Іван Мазур - контрабас, бас-гітара, вокал, мистецький керівник гурту.

Альбоми:
Многая літа (2003)


Видавець: Gold Lion
Пісні:
    01. Червона рута (03:08)
    02. Там за лісом (04:59)
    03. А на нашій вулиці (03:05)
    04. Сильний вітер (04:23)
    05. Зоряна ніч (03:24)
    06. Спить ставок (03:56)
    07. Яворочки (03:18)
    08. Пиємо (03:01)
    09. Котилась бочка (03:19)
    10. Весна надходить (04:01)
    11. А я їду селом (03:15)
    12. Летіли в небі журавлі (03:38)
    13. Надивлюсь на тебе (04:10)
    14. Моя кралечка (03:34)
    15. Ой там у Львові, на старім замку (03:10)
    16. Плач, кохана, плач (04:41)
    17. Ой дубе мій дубе (03:22)
    18. Червона калина (04:40)
    19. Многая літа (04:23)

Тривалість: 01:11:36
Мова: українська
Аудіо-кодек: FLAC
Бітрейт: 780-1046 кб/с LossLess
Джерело: Власний ріп
Додаткова інформація:
Цей альбом присвячений 15-річчю творчого шляху гурту "Львівські музики". І, треба визнати, шлях вийшов цікавим. Якщо не помиляюся, колись "Львівські музики" починали як звичайні сільські музики, які грали-співали просто на весіллях та інших святах. І , як бачите, наполеглива праця принесла неабиякі плоди. Справа навіть не в тому, що гурт відзначив 15 років існування, а скоро вже має відзначити і двадцять – це ще не подвиг. Але "Львівські музики" зуміли творчо вирости, причому настільки, що вже неодноразово мали гастролі у багатьох країнах Європи. Вони постійно приймають участь і у всякого роду фестивалях – нещодавно Ви могли їх помітити на дисках Міжнародного фестивалю української музики та пісні "Горицвіт". Оскільки альбом "Многая літа" є ювілейним – він просто не міг не вмістити пісень, які принесли гуртові визнання публіки, чи не так? Крім того, не забувайте – "Львівські музики" мають кілька облич, адже їхня дискографія включає, наприклад, і пісні УПА, і альбом народних пісень, і окрему збірку пісень різдвяних. В даному випадку – бачимо обличчя естрадне, з відповідним звучанням – легким та ліричним. Схожим на той, до якого нас привчили свого часу кращі українські ВІА.
log
Exact Audio Copy V1.0 beta 1 from 15. November 2010

EAC extraction logfile from 17. June 2011, 10:27

Львівські музики / Многая літа

Used drive : TSSTcorpDVD+-RW TS-L633C Adapter: 1 ID: 0

Read mode : Secure
Utilize accurate stream : Yes
Defeat audio cache : Yes
Make use of C2 pointers : No

Read offset correction : 6
Overread into Lead-In and Lead-Out : No
Fill up missing offset samples with silence : Yes
Delete leading and trailing silent blocks : No
Null samples used in CRC calculations : Yes
Used interface : Native Win32 interface for Win NT & 2000
Gap handling : Not detected, thus appended to previous track

Used output format : User Defined Encoder
Selected bitrate : 128 kBit/s
Quality : High
Add ID3 tag : No
Command line compressor : C:\Program Files (x86)\FLAC\flac.exe
Additional command line options : -8 -V -T "ARTIST=%a" -T "TITLE=%t" -T "ALBUM =%g" -T "DATE =%y" -T "TRACKNUMBER=%n" -T "GENRE =%m" -T" COMMENT= EAC FLAC -8 " %s

TOC of the extracted CD

Track | Start | Length | Start sector | End sector
---------------------------------------------------------
1 | 0:00.00 | 3:08.40 | 0 | 14139
2 | 3:08.40 | 4:59.16 | 14140 | 36580
3 | 8:07.56 | 3:05.40 | 36581 | 50495
4 | 11:13.21 | 4:23.31 | 50496 | 70251
5 | 15:36.52 | 3:24.46 | 70252 | 85597
6 | 19:01.23 | 3:56.28 | 85598 | 103325
7 | 22:57.51 | 3:18.68 | 103326 | 118243
8 | 26:16.44 | 3:01.32 | 118244 | 131850
9 | 29:18.01 | 3:19.21 | 131851 | 146796
10 | 32:37.22 | 4:01.49 | 146797 | 164920
11 | 36:38.71 | 3:15.10 | 164921 | 179555
12 | 39:54.06 | 3:38.28 | 179556 | 195933
13 | 43:32.34 | 4:10.51 | 195934 | 214734
14 | 47:43.10 | 3:34.24 | 214735 | 230808
15 | 51:17.34 | 3:10.69 | 230809 | 245127
16 | 54:28.28 | 4:41.29 | 245128 | 266231
17 | 59:09.57 | 3:22.41 | 266232 | 281422
18 | 62:32.23 | 4:40.55 | 281423 | 302477
19 | 67:13.03 | 4:23.21 | 302478 | 322223

Track 1

Filename M:\temp\CD\01 - Червона рута.wav

Peak level 94.4 %
Extraction speed 2.6 X
Track quality 100.0 %
Test CRC AC926E92
Copy CRC AC926E92
Copy OK

Track 2

Filename M:\temp\CD\02 - Там за лісом.wav

Peak level 94.4 %
Extraction speed 2.7 X
Track quality 99.9 %
Test CRC 559918A4
Copy CRC 559918A4
Copy OK

Track 3

Filename M:\temp\CD\03 - А на нашій вулиці.wav

Peak level 94.4 %
Extraction speed 3.2 X
Track quality 100.0 %
Test CRC 5EC79C02
Copy CRC 5EC79C02
Copy OK

Track 4

Filename M:\temp\CD\04 - Сильний вітер.wav

Peak level 94.4 %
Extraction speed 3.6 X
Track quality 100.0 %
Test CRC 9E44BD72
Copy CRC 9E44BD72
Copy OK

Track 5

Filename M:\temp\CD\05 - Зоряна ніч.wav

Peak level 94.4 %
Extraction speed 3.6 X
Track quality 100.0 %
Test CRC 41F5EA79
Copy CRC 41F5EA79
Copy OK

Track 6

Filename M:\temp\CD\06 - Спить ставок.wav

Peak level 94.4 %
Extraction speed 3.8 X
Track quality 100.0 %
Test CRC 80A9F9F5
Copy CRC 80A9F9F5
Copy OK

Track 7

Filename M:\temp\CD\07 - Яворочки.wav

Peak level 94.4 %
Extraction speed 3.1 X
Track quality 99.9 %
Test CRC 3E87A35A
Copy CRC 3E87A35A
Copy OK

Track 8

Filename M:\temp\CD\08 - Пиємо.wav

Peak level 94.4 %
Extraction speed 3.9 X
Track quality 100.0 %
Test CRC 57734E8D
Copy CRC 57734E8D
Copy OK

Track 9

Filename M:\temp\CD\09 - Котилась бочка.wav

Peak level 94.4 %
Extraction speed 4.1 X
Track quality 100.0 %
Test CRC 7536EEFE
Copy CRC 7536EEFE
Copy OK

Track 10

Filename M:\temp\CD\10 - Весна надходить.wav

Peak level 94.4 %
Extraction speed 4.5 X
Track quality 100.0 %
Test CRC 42FBE646
Copy CRC 42FBE646
Copy OK

Track 11

Filename M:\temp\CD\11 - А я їду селом.wav

Peak level 94.4 %
Extraction speed 4.4 X
Track quality 100.0 %
Test CRC B6FD7CAB
Copy CRC B6FD7CAB
Copy OK

Track 12

Filename M:\temp\CD\12 - Летіли в небі журавлі.wav

Peak level 94.4 %
Extraction speed 4.6 X
Track quality 100.0 %
Test CRC 1B161A63
Copy CRC 1B161A63
Copy OK

Track 13

Filename M:\temp\CD\13 - Надивлюсь на тебе.wav

Peak level 94.4 %
Extraction speed 4.8 X
Track quality 100.0 %
Test CRC 70A3EDF3
Copy CRC 70A3EDF3
Copy OK

Track 14

Filename M:\temp\CD\14 - Моя кралечка.wav

Peak level 94.4 %
Extraction speed 4.8 X
Track quality 100.0 %
Test CRC CBF5C421
Copy CRC CBF5C421
Copy OK

Track 15

Filename M:\temp\CD\15 - Ой там у Львові, на старім замку.wav

Peak level 94.4 %
Extraction speed 3.7 X
Track quality 99.9 %
Test CRC C805BAF1
Copy CRC C805BAF1
Copy OK

Track 16

Filename M:\temp\CD\16 - Плач, кохана, плач.wav

Peak level 94.4 %
Extraction speed 5.2 X
Track quality 100.0 %
Test CRC 0099409F
Copy CRC 0099409F
Copy OK

Track 17

Filename M:\temp\CD\17 - Ой дубе мій дубе.wav

Peak level 94.4 %
Extraction speed 4.1 X
Track quality 99.9 %
Test CRC 96979D43
Copy CRC 96979D43
Copy OK

Track 18

Filename M:\temp\CD\18 - Червона калина.wav

Peak level 94.4 %
Extraction speed 5.5 X
Track quality 100.0 %
Test CRC 9A818492
Copy CRC 9A818492
Copy OK

Track 19

Filename M:\temp\CD\19 - Многая літа.wav

Peak level 94.4 %
Extraction speed 5.6 X
Track quality 100.0 %
Test CRC 8C0C1516
Copy CRC 8C0C1516
Copy OK

No errors occurred

End of status report
Замріяні сни (2006)


Видавець: Ліда
Пісні:
    01. Марш "Львівських музик" (02:02)
    02. Мрійна ніч весни (03:25)
    03. Вже вечір вечоріє (03:11)
    04. А у саду калинонька (02:59)
    05. В гаю зелененькім (03:18)
    06. Володя (03:27)
    07. Весна надходить (04:03)
    08. Чарочка (03:29)
    09. Летіли в небі журавлі (03:39)
    10. Отаман (02:53)
    11. Червона калина (04:41)
    12. Канон (03:35)
    13. Весілля (04:15)
    14. Чекай (04:29)
    15. Горілочка (02:28)
    16. Цвинтар (03:00)
    17. Калабаня (02:34)
    18. Як ніч м’я покриє (04:35)
    19. Скрипочка (03:32)
    20. А на нашій вулиці (02:38)
    21. Виший, виший, моя кирпата (03:07)
    22. Хай живе вільна Україна (03:58)

Тривалість: 01:15:28
Мова: українська
Аудіо-кодек: FLAC
Бітрейт: 705-1046 кб/с LossLess
Джерело: Інтернет
Додаткова інформація:
Гурт "Львівські музики" живе вже майже 20 років, за цей час він зумів здобути прихильність великого кола слухачів – і не тільки вдома, а й за кордоном. Але ж ці часи не були такими вже легкими – принаймні, для України. Тому і дивно, і приємно, що гурт зумів-таки зберегти власне, особливе звучання – м’яке, радісне, привітне. Пісні у виконанні "Львівських музик", здається, просто випромінюють життєрадісні, світлі почуття. І новий альбом гурту знов доводить, що усмішки ще не зникли з цього світу. "Замріяні сни" – платівка, присвячена українським народним пісням, і не надто відомим. Недарма гурт зветься "Львівські музики" – напевно, потрібно було немало помандрувати саме Західною Україною, аби назбирати таких пісень. Є в них щось особливе – що дуже відрізняє їх від пісень Центральної або Східної України. До того ж, гурт додав їм нових барв – але аранжував дбайливо, без зайвих рухів. Тому на перший план виходить краса кожної окремої пісні – цю красу не приховано за бажанням приголомшити слухача чимось чудернацьким. Приємно, коли щось робиться не заради якоїсь слави, а просто – щоб було гарно. Схоже на те, що тут – зроблено саме так.
log
EAC extraction logfile from 16. July 2007, 10:06 for CD
Unknown Artist / Unknown Title

Used drive : HL-DT-STDVDRAM GSA-H10N Adapter: 0 ID: 1
Read mode : Secure with NO C2, accurate stream, disable cache
Combined read/write offset correction : 0
Overread into Lead-In and Lead-Out : No

Used output format : Internal WAV Routines
44.100 Hz; 16 Bit; Stereo

Other options :
Fill up missing offset samples with silence : Yes
Delete leading and trailing silent blocks : No
Native Win32 interface for Win NT & 2000

Range status and errors
Selected range
Filename C:\temp\Lvivski_muzyky_zamriyani_sny.wav

Peak level 98.9 %
Range quality 100.0 %
CRC 82B4F34A
Copy OK

No errors occured

End of status report

------------------------------------------------------------

EAC extraction logfile from 16. July 2007, 10:41 for CD
Unknown Artist / Unknown Title

Used drive : HL-DT-STDVDRAM GSA-H10N Adapter: 0 ID: 1
Read mode : Secure with NO C2, accurate stream, disable cache
Combined read/write offset correction : 0
Overread into Lead-In and Lead-Out : No

Used output format : Internal WAV Routines
44.100 Hz; 16 Bit; Stereo

Other options :
Fill up missing offset samples with silence : Yes
Delete leading and trailing silent blocks : No
Native Win32 interface for Win NT & 2000

Range status and errors
Selected range
Filename C:\temp\Lvivski_muzyky_mnogaya_lita.wav

Peak level 94.4 %
Range quality 100.0 %
CRC 0CC68967
Copy OK

No errors occured

End of status report
Загальна тривалість: 02:27:04
Мова: українська
Аудіо-кодек: FLAC
Бітрейт: 705-1046 кб/с LossLess
Джерело: Власний ріп, Інтернет
Додаткова інформація:
Фольк-гурт «Львівські музики» був заснований у січні 1988р. у старовинному місті Лева.
З музою і любов’ю до української пісні в одне ціле зібрались чотири музиканти і вокалісти, які раніше працювали у славних гуртах – «Світязь», «Ватра», «Львів» і «Рекрут» - це Станіслав Чуєнко, Іван Мазур, Ігор Курач та Степан Пигитяк. Гурт назвали «Львівські Музики» і одразу ж отримали визнання палких шанувальників.
А перша перемога і справжня слава прийшла до «музик» на фестивалях «Червона Рута» (1989р.) та «Золоті Трембіти» (1996р.), де «Львівські музики» стали лауреатами і їхня пісня злетіла над цілою Україною і цілим світом. Як наслідок – гастролі до країн, де мешкають українці і не тільки, бо українську пісню люблять всі. Збулась мета, яку поставили перед собою хлопці – популяризувати українську пісню і мелос у цілому світі. І так сталося. Музики побували на усіх континентах, їм аплодували найперше у Югославії, Німеччині, Канаді, Великій Британії, Америці, Австралії, Португалії, Польщі, Італії, Словачині і навіть на острові Мазейра у Атлантичному океані. Не одноразово хлопці виступали на доброчинних концертах та акціях для дітей сиріт, чорнобильців і неповносправних.
У репертуарі «Львівських музик» більше 300-сот пісень, хлопці зробили все аби відродити забуті народні пісні, духовні, січових стрільців і УПА, лемківські, соромітські, а також пісні сучасних композиторів. У січні 2009р. – гурт відзначив своє творче 20-ти ліття. За цей час "Львівські музики" випустили 10 музичних альбомів і 8 відеофільмів. Склад гурту з плином часу змінювався, свій великий вклад в його розвиток зробили окрім вище названих і Степан Барабах, Юрій Цвєтков і нині покійний Степан Пичитяк.
Сьогодні до складу «Львівських Музик» входять четверо музикантів і вокалістів:
Володимир Ковальчук акордіон, клавіші, сопілка, вокал, музичний керівник
Богдан Жовтуля скрипка, бубенки, гітара, вокал.
Тарас Тимошенко гітара, труба, клавіші, вокал.
Іван Мазур контрабас, бас-гітара, вокал, мистецький керівник гурту.
Останні 10 років гурт працює у тісній співпраці з відомим телеведучим і продюсером Ігорем Кобрином.
Якщо Ви справді бажаєте підтримати українське - після прослуховування, якщо музика вам сподобалась, придбайте ліцензійний диск. Підтримаймо вітчизняних виконавців!


Срібний реліз (на рейтинг впливає 50% завантаженого)
 Трекер:    Зареєстрований   

Завантажити / скачати українську музику



відео для новачків



 Зареєстрований:   2011-06-17 10:25
 Розмір:   948 MB 
 Оцінка музики:   10/10 (Голосів: 11)
   
musicfan 
Модератор музики


З нами з: 27.01.09
Востаннє: 05.12.16
Повідомлень: 893

2011-06-17 11:25  
Дещо поправив оформлення.
Одне маленьке прохання: додайте інформацію log файлів під спойлер до обох альбомів

maxnet 
Частий відвідувач


З нами з: 13.01.10
Востаннє: 20.10.16
Повідомлень: 38

2011-06-17 12:25  
Цитата:
додайте інформацію log файлів під спойлер до обох альбомів

Добавив

Ваш часовий пояс: GMT + 2 Години

Нова тема   Відповісти