Завантажити та скачати торренти українською


Pelican Jazz Quartet - From Spain To Brazil (2006) [FLAC] | Jazz

Нові коментарі

Нова тема   Відповісти
Автор Повідомлення
ssTAss 
Модератор музики


З нами з: 05.07.08
Востаннє: 02.12.16
Повідомлень: 10928

2011-06-15 14:10  
Pelican Jazz Quartet - From Spain To Brazil (2006) [FLAC] | Jazz



Стиль: Jazz
Країна, місто: Україна, Черкаси-Київ
Сайти: Офіційний сайт
Видавець: Музичний центр
Виконавці:
Дмитро Воронін - гітара
Сергій Крашенінніков - клавішні, бендлідер
Олександр Сторожик - бас-гітара
Сергій Попов - барабани
Пісні:
    1. Brazil (A.Barroso)
    2. Desafinadp (A.C.Jobim)
    3. My One And Only Love (G. Wood)
    4. Out Of Nowhere (J.Green)
    5. No More Blues (A.C.Jobim)
    6. Relaxin\' At Camarillo (Ch.Parker)
    7. Estate (B.Martino)
    8. Body And Soul (J.Green)
    9. Dindi (A.C.Jobim)
    10. Funk Underneath (R.Kirk)
    11. Spain (Ch.Corea)
log

Exact Audio Copy V0.99 prebeta 4 from 23. January 2008

Отчёт EAC об извлечении, выполненном 31. октября 2008, 2:14

Pelican Jazz Quartet / From Spain to Brazil

Дисковод: SONY CD-RW CRX230ED Adapter: 1 ID: 0

Режим чтения : Достоверность
Использование точного потока : Да
Отключение кэша аудио : Да
Использование указателей C2 : Нет

Коррекция смещения при чтении : 6
Способность читать области Lead-in и Lead-out : Нет
Заполнение пропущенных сэмплов тишиной : Да
Удаление блоков с тишиной в начале и конце : Нет
При вычислениях CRC использовались нулевые сэмплы : Да
Интерфейс : Встроенный Win32-интерфейс для Win NT/2000

Выходной формат : Внутренние WAV-операции
Формат сэмплов : 44.100 Гц; 16 бит; стерео

TOC извлечённого CD

Трек | Старт | Длительность | Начальный сектор | Конечный сектор
---------------------------------------------------------------------
1 | 0:00.00 | 5:53.56 | 0 | 26530
2 | 5:53.56 | 6:17.21 | 26531 | 54826
3 | 12:11.02 | 7:07.74 | 54827 | 86925
4 | 19:19.01 | 6:30.05 | 86926 | 116180
5 | 25:49.06 | 5:29.00 | 116181 | 140855
6 | 31:18.06 | 4:09.02 | 140856 | 159532
7 | 35:27.08 | 9:04.40 | 159533 | 200372
8 | 44:31.48 | 5:00.63 | 200373 | 222935
9 | 49:32.36 | 8:02.10 | 222936 | 259095
10 | 57:34.46 | 6:32.65 | 259096 | 288560
11 | 64:07.36 | 7:25.39 | 288561 | 321974

Характеристики диапазона извлечения и сообщения об ошибках

Выбранный диапазон

Имя файла D:\MyTORRENTS\Pelican Jazz Quartet - From Spain To Brazil\Pelican Jazz Quartet - From Spain to Brazil.wav

Пиковый уровень 98.5 %
Качество диапазона 100.0 %
CRC копии 709623B8
Копирование... OK

Ошибок не произошло

Конец отчёта
fooCDtect

fooCDtect - foobar2000 + auCDtect, baralgin.

auCDtect: CD records authenticity detector, version 0.8.2
Copyright (c) 2004 Oleg Berngardt. All rights reserved.
Copyright (c) 2004 Alexander Djourik. All rights reserved.

mode: 0

=======================================================
Track: 01 - Brazil (A.Barroso)
Quality: CDDA, 99%
=======================================================
Track: 02 - Desafinado (A.C.Jobim)
Quality: CDDA, 100%
=======================================================
Track: 03 - My On And Only Love (G.Wood)
Quality: CDDA, 100%
=======================================================
Track: 04 - Out Of Nowhere (J.Green)
Quality: CDDA, 100%
=======================================================
Track: 05 - No More Blues (A.C.Jobim)
Quality: CDDA, 100%
=======================================================
Track: 06 - Relaxin' At Camarillo (Ch.Parker)
Quality: CDDA, 99%
=======================================================
Track: 07 - Estate (B.Martino)
Quality: CDDA, 100%
=======================================================
Track: 08 - Body And Soul (J.Green)
Quality: CDDA, 100%
=======================================================
Track: 09 - Dindi (A.C.Jobim)
Quality: CDDA, 100%
=======================================================
Track: 10 - Funk Underneath (R.Kirk)
Quality: CDDA, 100%
=======================================================
Track: 11 - Spain (Ch.Corea)
Quality: CDDA, 100%
=======================================================
Тривалість: 01:11:33
Мова: без слів
Аудіо-кодек: FLAC
Бітрейт: 901 кб/с
Джерело: інтернет (в роздачі присутні скани)
Додаткова інформація:
Записано 8-го серпня 2006 року на студії S&Ven Production Studio (Черкаси, Україна)


Якщо Ви справді бажаєте підтримати українське - після прослуховування, якщо музика вам сподобалась,
придбайте ліцензійний диск.
Підтримаймо вітчизняних виконавців!


Срібний реліз (на рейтинг впливає 50% завантаженого)
 Трекер:    Зареєстрований   

Завантажити / скачати українську музику



відео для новачків



 Зареєстрований:   2011-06-15 14:10
 Розмір:   462 MB 
 Оцінка музики:   8.1/10 (Голосів: 14)
   
natashelka 
VIP


З нами з: 23.05.10
Востаннє: 02.12.16
Повідомлень: 441

2015-05-23 22:11  
Місцями божественно
Ваш часовий пояс: GMT + 2 Години

Нова тема   Відповісти