Завантажити та скачати торренти українською


Нещадний / Швидше / Faster (2010) 720p Ukr/Eng | Sub Ukr/Eng

Нові коментарі

Нова тема   Відповісти
Автор Повідомлення
Віктор 
Відео Гуртом - субтитрування
Відео Гуртом - субтитрування


З нами з: 09.01.10
Востаннє: 07.12.16
Повідомлень: 8663

2011-06-08 13:37  
Нещадний / Швидше / Faster (2010) 720p Ukr/Eng | Sub Ukr/Eng



«Slow Justice is No Justice.»


Жанр: трилер, бойовик, драма
Країна: США



Кіностудія / кінокомпанія: CBS Films, Castle Rock Entertainment та State Street Pictures
Режисер: Джордж Тіллман мол. (George Tillman Jr.)
Композитор: Клінт Манселл (Clint Mansell)
Актори: Двейн Джонсон (Dwayne Johnson), Біллі Боб Торнтон (Billy Bob Thornton), Олівер Джексон Коен (Oliver Jackson-Cohen), Меґі Ґрейс (Maggie Grace), Майк Еппс (Mike Epps), Том Беренджер (Tom Berenger), Карла Ґуджино (Carla Gugino), Мун Бладґуд (Moon Bloodgood) та інші.

Сюжет:
Він провів багато часу за ґратами, щоб придумати план помсти за вбивство брата. Йому потрібні лише дві речі: швидкий автомобіль та надійна зброя. Бо його формула справедливості проста - швидкість, влучність та жодних компромісів.
MediaInfo

Код:

 General
Unique ID                        : 248109102571061578978675286113092305492 (0xBAA81333F6E8B0C483B4EECAD2E70254)
Complete name                    : D:\ 720p\Faster (2010) [Ukr, Eng] 720p [Hurtom, HDBRiSe].mkv
Format                           : Matroska
File size                        : 4.22 GiB
Duration                         : 1h 37mn
Overall bit rate                 : 6 164 Kbps
Movie name                       : Hurtom & HDBRiSe
Encoded date                     : UTC 2011-06-16 17:13:00
Writing application              : mkvmerge v4.7.0 ('Just Like You Imagined') зібрано Apr 21 2011 01:13:14
Writing library                  : libebml v1.2.0 + libmatroska v1.1.0

Video
ID                               : 1
Format                           : AVC
Format/Info                      : Advanced Video Codec
Format profile                   : [email protected]
Format settings, CABAC           : Yes
Format settings, ReFrames        : 12 frames
Format settings, GOP             : M=1, N=21
Muxing mode                      : Header stripping
Codec ID                         : V_MPEG4/ISO/AVC
Duration                         : 1h 37mn
Bit rate                         : 4 884 Kbps
Width                            : 1 280 pixels
Height                           : 528 pixels
Display aspect ratio             : 2.40:1
Frame rate                       : 23.976 fps
Color space                      : YUV
Chroma subsampling               : 4:2:0
Bit depth                        : 8 bits
Scan type                        : Progressive
Bits/(Pixel*Frame)               : 0.301
Stream size                      : 3.26 GiB (77%)
Title                            : Hurtom & HDBRiSe
Writing library                  : core 113 r1884 7313bb5
Encoding settings                : cabac=1 / ref=12 / deblock=1:-3:-3 / analyse=0x3:0x113 / me=umh / subme=10 / psy=1 / psy_rd=0.90:0.20 / mixed_ref=1 / me_range=24 / chroma_me=1 / trellis=2 / 8x8dct=1 / cqm=0 / deadzone=21,11 / fast_pskip=1 / chroma_qp_offset=-3 / threads=6 / sliced_threads=0 / nr=0 / decimate=0 / interlaced=0 / constrained_intra=0 / bframes=4 / b_pyramid=2 / b_adapt=2 / b_bias=0 / direct=3 / weightb=1 / open_gop=0 / weightp=0 / keyint=250 / keyint_min=25 / scenecut=40 / intra_refresh=0 / rc=2pass / mbtree=0 / bitrate=4884 / ratetol=1.0 / qcomp=0.60 / qpmin=0 / qpmax=51 / qpstep=4 / cplxblur=20.0 / qblur=0.5 / ip_ratio=1.40 / pb_ratio=1.30 / aq=1:1.00
Language                         : English

Audio #1
ID                               : 2
Format                           : AC-3
Format/Info                      : Audio Coding 3
Mode extension                   : CM (complete main)
Muxing mode                      : Header stripping
Codec ID                         : A_AC3
Duration                         : 1h 37mn
Bit rate mode                    : Constant
Bit rate                         : 640 Kbps
Channel(s)                       : 6 channels
Channel positions                : Front: L C R, Side: L R, LFE
Sampling rate                    : 48.0 KHz
Bit depth                        : 16 bits
Compression mode                 : Lossy
Stream size                      : 448 MiB (10%)
Title                            : 5.1 @ 640 Kbps Дубляж  - LeDoyen Studio | Ліцензія Blu-ray
Language                         : Ukrainian

Audio #2
ID                               : 3
Format                           : AC-3
Format/Info                      : Audio Coding 3
Mode extension                   : CM (complete main)
Muxing mode                      : Header stripping
Codec ID                         : A_AC3
Duration                         : 1h 37mn
Bit rate mode                    : Constant
Bit rate                         : 640 Kbps
Channel(s)                       : 6 channels
Channel positions                : Front: L C R, Side: L R, LFE
Sampling rate                    : 48.0 KHz
Bit depth                        : 16 bits
Compression mode                 : Lossy
Stream size                      : 448 MiB (10%)
Title                            : 5.1 @ 640 Kbps - Original
Language                         : English

Text #1
ID                               : 4
Format                           : UTF-8
Codec ID                         : S_TEXT/UTF8
Codec ID/Info                    : UTF-8 Plain Text
Title                            : Переклад: terminator.92, редагування: w2958l
Language                         : Ukrainian

Text #2
ID                               : 5
Format                           : UTF-8
Codec ID                         : S_TEXT/UTF8
Codec ID/Info                    : UTF-8 Plain Text
Language                         : English
Всі наявні релізи

720p Ukr/Eng | Sub Ukr/Eng (4.22 GB) - професійний дубльований LeDoyen Studio Ліцензія Blu-ray
720p Ukr/Eng (6.12 GB) - професійний дубльований LeDoyen Studio Ліцензія R5
720p-mini Ukr/Eng | Sub Eng (2.3 GB) - професійний дубльований LeDoyen Studio Ліцензія R5
Ukr/Eng | Sub Ukr/Eng (1.45 GB) - професійний дубльований LeDoyen Studio Ліцензія R5
Ukr/Eng (1.7 GB) - професійний дубльований LeDoyen Studio Ліцензія R5
Eng | sub Ukr (1.37 GB)

Дубльовано LeDoyen Studio на замовлення "B&H Film Distribution" у 2010.
Режисер дубляжу: Анна Пащенко
Перекладач: Федір Сидорук
Звукорежисер: Андрій Тріфонов
Ролі дублювали: Двейн Джонсон/Водій - Михайло Жонін, Андрій Самінін, Володимир Остапчук, Олена Узлюк, Катерина Качан, Наталія Ярошенко, Євангеліст - Юрій Ребрик, Володимир Терещук, Григорій Герман, Том Беренджер/Начальник в'язниці - Олександр Ігнатуша, Борис Георгієвський та інші.
Тривалість: 01:37:57
Якість: 720р (HDBRiSe)
Відео:
кодек:
розмір кадру: 1280х528
бітрейт: 4884 кб/с

Аудіо # 1:
мова: українська
переклад: професійний дубльований LeDoyen Studio | Ліцензія Blu-ray
кодек: 5.1
бітрейт: 640 кб/с

Аудіо # 2:
мова: англійська
переклад: оригінал
кодек: 5.1
бітрейт: 640 кб/с

Субтитри # 1:
мова: українська
тип: програмні (м'які)
формат: *.srt
переклад: terminator.92, редагування: w2958l

Субтитри # 2:
мова: англійська
тип: програмні (м'які)
формат: *.srt

Скріншоти:





За переклад субтитрів подяка terminator.92
За синхронізацію субтитрів подяка karvai0


Джерело:
Особиста оцінка: 9


 Трекер:    Зареєстрований   

Завантажити / скачати фільм українською



відео для новачків



 Зареєстрований:   2011-06-16 21:23
 Розмір:   4.22 GB 
 Оцінка фільму:   9.5/10 (Голосів: 18)
   
Віктор 
Відео Гуртом - субтитрування
Відео Гуртом - субтитрування


З нами з: 09.01.10
Востаннє: 07.12.16
Повідомлень: 8663

2011-06-08 13:48  
На рутрекері можна почитати коментарі стосовно якості цього ріпа.
XXXVIRUS 
Частий відвідувач


З нами з: 15.06.10
Востаннє: 07.12.16
Повідомлень: 33

2011-06-08 17:26  
Цитата:
HDBRiSe

і що в цьому ріпі особливого??
якщо вже робиш - то роби з ріпом від HiDt, або EbP. думаю буде краще...

Віктор 
Відео Гуртом - субтитрування
Відео Гуртом - субтитрування


З нами з: 09.01.10
Востаннє: 07.12.16
Повідомлень: 8663

2011-06-08 18:04  
Pavlo94 написано:
якщо вже робиш - то роби з ріпом від HiDt, або EbP. думаю буде краще...


А що особливого в HiDt?
RESOLUTION.....: 1280x534
BITRATE........: ~ 5.6 Mbps ---- Завантажу подивлюсь))

EbP вже є на трекері.

XXXVIRUS 
Частий відвідувач


З нами з: 15.06.10
Востаннє: 07.12.16
Повідомлень: 33

2011-06-08 18:23  
Цитата:
А що особливого в HiDt?

я свого часу дивився цей фільм якраз у ріпі від HiDt...якість була супер + на багато яскравіша картинка ніж у EbP.
Що правда, я тоді навіть не очікував на BluRay CEE, тому дивився зі звуком з двд, він був просто ужасний, тому заміна тому релізу з тим низьким звуком я думаю потрібна.

bot 
робот


З нами з: 30.09.07
Востаннє: 26.05.05
Повідомлень: 16027

2011-06-16 21:22  
Тему перенесено з Анонси релізів від Відео Гуртом до форуму Художні фільми в HD


w2958l

Sahokk 
Частий відвідувач


З нами з: 14.11.10
Востаннє: 05.10.15
Повідомлень: 48

2011-06-23 19:46  
дякую) щей золотий реліз) забрав
Dinamit777 
Свій


З нами з: 09.07.10
Востаннє: 12.01.12
Повідомлень: 55

2011-11-29 21:14  
фільм на один раз, але дякую за те що у своїх релізах додаєте саби. Дуже зручно для вивчення мови.
Lil`Antoni 
Поважний учасник


З нами з: 25.02.12
Востаннє: 07.12.16
Повідомлень: 204

2015-12-23 18:54  
Дозвольте скачати.
Lil`Antoni 
Поважний учасник


З нами з: 25.02.12
Востаннє: 07.12.16
Повідомлень: 204

2015-12-24 12:37  
Дяекую, вже скачав, буду на днях дивитися Happy Wink (2) Wink (2)
Ваш часовий пояс: GMT + 2 Години

Нова тема   Відповісти