Завантажити та скачати торренти українською


Іннеса - Ґердан. Новий звук етнічної України (2007) [APE] | Instrumental

Нові коментарі

Нова тема   Відповісти
Останній раз роздавалося Myfordownloads (2016-10-09)
Автор Повідомлення
fv007 
VIP


З нами з: 01.01.10
Востаннє: 07.12.16
Повідомлень: 449

2011-06-06 21:46  
Іннеса - Ґердан. Новий звук етнічної України (2007) [APE] | Instrumental



Стиль: Instrumental, Folk
Країна: Україна
Видавець: Comp music
Виконавці: Іннеса
Пісні:
    1. Сонце
    2. Буковина
    3. Палянка
    4. Ой, Верше!
    5. В’язанка
    6. Танок "Гойра"
    7. Бесарабка
    8. Коза-Дуда
    9. Румунка
    10. Полька Краков’я
    11. Чарівна Вишня
    12. Чичері

Тривалість: 00:43:13
Мова: відсутня
Аудіо-кодек: APE
Бітрейт: 933 кб/с
Джерело: CD
log
Exact Audio Copy V0.99 prebeta 3 from 28. July 2007

Отчёт EAC об извлечении, выполненном 21. мая 2011, 16:16

Іннеса / Ґердан. Новий звук етнічної України

Дисковод: HL-DT-STDVDRAM GSA-4167B Adapter: 0 ID: 1

Режим чтения : Достоверность
Использование точного потока : Да
Отключение кэша аудио : Нет
Использование указателей C2 : Да

Комбинированное смещение чтения/записи : 0
Способность читать области Lead-in и Lead-out : Нет
Заполнение пропущенных сэмплов тишиной : Да
Удаление блоков с тишиной в начале и конце : Нет
При вычислениях CRC использовались нулевые сэмплы : Нет
Интерфейс : Встроенный Win32-интерфейс для Win NT/2000

Выходной формат : Внутренние WAV-операции
Формат сэмплов : 44.100 Гц; 16 бит; стерео

TOC извлечённого CD

Трек | Старт | Длительность | Начальный сектор | Конечный сектор
---------------------------------------------------------------------
1 | 0:00.00 | 3:20.28 | 0 | 15027
2 | 3:20.28 | 3:32.47 | 15028 | 30974
3 | 6:53.00 | 3:03.17 | 30975 | 44716
4 | 9:56.17 | 3:54.42 | 44717 | 62308
5 | 13:50.59 | 4:16.52 | 62309 | 81560
6 | 18:07.36 | 3:27.48 | 81561 | 97133
7 | 21:35.09 | 3:20.28 | 97134 | 112161
8 | 24:55.37 | 3:38.01 | 112162 | 128512
9 | 28:33.38 | 3:27.66 | 128513 | 144103
10 | 32:01.29 | 3:50.40 | 144104 | 161393
11 | 35:51.69 | 3:53.41 | 161394 | 178909
12 | 39:45.35 | 3:27.63 | 178910 | 194497

Характеристики диапазона извлечения и сообщения об ошибках

Выбранный диапазон

Имя файла D:\1. Українська\І\Іннеса\Іннеса - Ґердан. Новий звук етнічної України [APE]\Іннеса - Ґердан. Новий звук етнічної України.wav

Пиковый уровень 97.3 %
Качество диапазона 100.0 %
CRC копии 74C33027
Копирование... OK

Ошибок не произошло

Конец отчёта
Якщо Ви справді бажаєте підтримати українське - після прослуховування, якщо музика вам сподобалась, придбайте ліцензійний диск. Підтримаймо вітчизняних виконавців!


Срібний реліз (на рейтинг впливає 50% завантаженого)
 Трекер:    Зареєстрований   

Завантажити / скачати українську музику



відео для новачків



 Зареєстрований:   2011-06-06 21:46
 Розмір:   301 MB 
 Оцінка музики:   9.8/10 (Голосів: 5)
   
ssTAss 
Модератор музики


З нами з: 05.07.08
Востаннє: 07.12.16
Повідомлень: 10947

2011-06-06 22:02  
додайте будь ласка вміст лог-файлу під спойлер
MasterYura 
Відео Гуртом - фільмокрай
Відео Гуртом - фільмокрай


З нами з: 21.11.09
Востаннє: 08.12.16
Повідомлень: 927

2011-06-06 22:13  
цікавий постер-оригінальний)))
Skiff 
музика
музика


З нами з: 12.11.07
Востаннє: 06.12.16
Повідомлень: 3051

2011-06-07 12:14  
MasterYura
Іннеса - Ґердан. Новий звук етнічної України (2007) [MP3] | Instrumental
Реліз в емпетри.
Там вже обговорювалось...: як музика, так і обкладинка Wink (1)

Ваш часовий пояс: GMT + 2 Години

Нова тема   Відповісти