Завантажити та скачати торренти українською


Астерікс на Олімпійських іграх / Asterix aux jeux olympiques (2008) 1080p Ukr/Fra

Нові коментарі

Нова тема   Відповісти
Автор Повідомлення
simon 2 
Відео Гуртом - підтримка та поширення
Відео Гуртом - підтримка та поширення


З нами з: 27.03.11
Востаннє: 13.05.12
Повідомлень: 341

2011-06-06 12:06  
Астерікс на Олімпійських іграх / Asterix aux jeux olympiques (2008) 1080p Ukr/Fra



Жанр: пригодницький, комедія, фентезі
Країна: Німеччина, Франція, Італія, Іспанія, Бельгія



Кіностудія / кінокомпанія: Pathe Renn Productions, La Petite Reine, TF1 Films Productions, TriPictures, SOROlla Films, Constantin Film, Novo RPI, Canal+, Canal+ Espana, Banque Populaire Images 7, Motion Investment Group, Les Editions Albert Rene
Режисер: Фредерік Форестьє, Томас Лонгманн
Актори: Жерар Депардьє, Кловіс Корнійяк, Бенуа Пульворде, Ален Делон, Ванесса Хесслер, Франк Дюбоск, Хосе Гарсіа ,Міхаель Шумахер, Жан Тодд ,Зінедін Зідан,Тоні Паркер

Сюжет:
50 років до Різдва Христового. Вся Галлія під владою Римської Імперії. Але не варто засмучуватися: одне село продовжує героїчний опір. Адже її жителі впевнені у власній непереможності. Уже кілька місяців серце Коханікса (Стефан Руссо) б'ється тільки заради грецької принцеси Ірини (Ванесса Хесслер). Але, на жаль, він не єдиний претендент на її руку. Велика політика призначила Ірину за дружину Бруту (Бенуа Пулворд), синові Юлія Цезаря (Ален Делон). Щоб відтягнути небажаний шлюб і дати шанс Коханікса Ірина повідомляє, що вийде заміж за переможця Олімпійських Ігор. Отже, Коханікс приступає до тренувань під керівництвом тих, хто найшвидший, найвищий, найсильніший, і, зрозуміло, найрозумніший за всіх - Астерікса (Кловіс Корніяк) та Обелікса (Жерар Депардьє). А хитрий Брут - до розробки підступного плану.

Новий фільм, новий погляд – і новий Цезар: в усіх трьох “Астеріксах” вони дуже різні, і, слід визнати, у цьому плані третій затикає за пояс попередніх. У виконанні Делона, живої легенди кіно, Гай Юлій вийшов водночас смішним і величним, самозакоханим і по-справжньому сильним як особистість. На відміну від деяких американських акторів того ж віку і не меншого таланту, Делон навіть у подібному балаганному фільмі не вдається до дешевих гегів і викривлянь: його роль вимагає лише магію екранної присутності, а цього кумиру кількох поколінь не позичати.
Третій фільм також має нового Астерікса – молодшого і жвавішого, ніж Крістіан Клав’є. Напевно, можна сказати, що картині це теж пішло на користь. Депардьє в ролі Обелікса... він, фактично, єдине, що об’єднує фільми кіносеріалу, і він без особливих складностей знаходить своє місце у кожному з них, але не можна сказати, що він грає у якомусь із них дуже важливу роль. У даному випадку усіх “галів” на голову переграє Пульворде у ролі Брута: його персонаж водночас кумедний, жалюгідний і підлий, наче змія. Зазвичай комедіанти будують собі маску на поєднанні рис темних і світлих, і лише дехто (найяскравіший приклад – Луї Де Фюнес) наважується зовсім відмовитись від позитиву. Пульворде зробив це, і з успіхом.


Тривалість: 01:57:14
Якість:
Відео:
розмір кадру: 1920х820
бітрейт: 10100 кб/с

Аудіо # 1:
мова: українська
переклад: професійний дубльований
кодек: 5.1
бітрейт: 448 кб/с

Аудіо # 2:
мова: французька
переклад: оригінал
кодек: 5.1
бітрейт: 755 кб/с

Переклад і озвучення виконано:
MediaInfo
Код:
General
Complete name                    : V:\Asterix aux jeux olympiques (2008) 1080p UkrFra[UKR][Hurtom] by simon 2.mkv
Format                           : Matroska
File size                        : 9.41 GiB
Duration                         : 1h 57mn
Overall bit rate                 : 11.5 Mbps
Movie name                       : Asterix aux jeux olympiques (2008) [UKR][Hurtom] by simon 2
Writing application              : AVI-Mux GUI 1.17.8, Aug 30 2008  12:36:58
Writing library                  : matroska muxer by Alexander Noe, build date Aug 30 2008

Video
ID                               : 1
Format                           : AVC
Format/Info                      : Advanced Video Codec
Format profile                   : [email protected]
Format settings, CABAC           : Yes
Format settings, ReFrames        : 4 frames
Muxing mode                      : Container [email protected]
Codec ID                         : V_MPEG4/ISO/AVC
Duration                         : 1h 57mn
Bit rate                         : 10.1 Mbps
Nominal bit rate                 : 10.3 Mbps
Width                            : 1 920 pixels
Height                           : 820 pixels
Display aspect ratio             : 2.35:1
Frame rate                       : 24.000 fps
Resolution                       : 24 bits
Colorimetry                      : 4:2:0
Scan type                        : Progressive
Bits/(Pixel*Frame)               : 0.266
Stream size                      : 8.24 GiB (88%)
Writing library                  : core 98 r1649 20cbe10
Encoding settings                : cabac=1 / ref=4 / deblock=1:-3:-3 / analyse=0x3:0x113 / me=umh / subme=9 / psy=1 / psy_rd=1.00:0.10 / mixed_ref=1 / me_range=32 / chroma_me=1 / trellis=2 / 8x8dct=1 / cqm=0 / deadzone=21,11 / fast_pskip=0 / chroma_qp_offset=-1 / threads=8 / sliced_threads=0 / nr=0 / decimate=0 / interlaced=0 / constrained_intra=0 / bframes=6 / b_pyramid=2 / b_adapt=2 / b_bias=0 / direct=3 / weightb=1 / weightp=2 / keyint=250 / keyint_min=24 / scenecut=40 / intra_refresh=0 / rc=2pass / mbtree=0 / bitrate=10300 / ratetol=1.0 / qcomp=0.60 / qpmin=10 / qpmax=51 / qpstep=4 / cplxblur=20.0 / qblur=0.5 / ip_ratio=1.40 / pb_ratio=1.30 / aq=1:1.00
Language                         : English

Audio #1
ID                               : 2
Format                           : AC-3
Format/Info                      : Audio Coding 3
Codec ID                         : A_AC3
Duration                         : 1h 57mn
Bit rate mode                    : Constant
Bit rate                         : 448 Kbps
Channel(s)                       : 6 channels
Channel positions                : Front: L C R, Surround: L R, LFE
Sampling rate                    : 48.0 KHz
Stream size                      : 376 MiB (4%)
Title                            : DUB 5.1 448 kbps
Language                         : Ukrainian

Audio #2
ID                               : 3
Format                           :
Format/Info                      : Digital Theater Systems
Codec ID                         : A_DTS
Duration                         : 1h 57mn
Bit rate mode                    : Constant
Bit rate                         : 755 Kbps
Channel(s)                       : 6 channels
Channel positions                : Front: L C R, Surround: L R, LFE
Sampling rate                    : 48.0 KHz
Resolution                       : 24 bits
Stream size                      : 633 MiB (7%)
Title                            : Original 5.1 755 kbps
Language                         : French / French /  / French /  /
Скріншоти:






Джерело: &
Особиста оцінка: 10 - без зайвих вагань рекомендую всім!
Дякую пану rostik_neo за сиру доріжку !!!


 Трекер:    Зареєстрований   

Завантажити / скачати фільм українською



відео для новачків



 Зареєстрований:   2011-06-06 20:16
 Розмір:   9.41 GB 
 Оцінка фільму:   10/10 (Голосів: 4)
   
DiGen 
Модератор HD та координатор Команди HD
Модератор HD та координатор Команди HD


З нами з: 12.11.09
Востаннє: 24.06.13
Повідомлень: 1452

2011-06-06 13:00  
Ще дві світлини тре додати. Оригінальна доріжка в ас3 755 не може бути, бо ас3 максимальне 640 - прохання внести корективи.

Додано через 3 хвилини 29 секунд:

В назві фільму не вказано що це 1080p

simon 2 
Відео Гуртом - підтримка та поширення
Відео Гуртом - підтримка та поширення


З нами з: 27.03.11
Востаннє: 13.05.12
Повідомлень: 341

2011-06-06 13:02  
DiGen написано:
В назві фільму не вказано що це 1080p

Як не вказано ?

Jatx_11 
Відео Гуртом - фільмокрай
Відео Гуртом - фільмокрай


З нами з: 20.04.11
Востаннє: 23.10.16
Повідомлень: 700

2011-06-06 13:25  
Він має на увазі в торент ( сам файл ) назві. Хоча може бути і без цього. Там досить інфомації

Додано через 1 хвилину 42 секунди:

О, а це хіба не mini?

simon 2 
Відео Гуртом - підтримка та поширення
Відео Гуртом - підтримка та поширення


З нами з: 27.03.11
Востаннє: 13.05.12
Повідомлень: 341

2011-06-06 13:34  
Jatx_11 написано:
Він має на увазі в торент ( сам файл ) назві. Хоча може бути і без цього. Там досить інфомації

АААААААААА!
Jatx_11 написано:
О, а це хіба не mini?


Ні!

simon 2 
Відео Гуртом - підтримка та поширення
Відео Гуртом - підтримка та поширення


З нами з: 27.03.11
Востаннє: 13.05.12
Повідомлень: 341

2011-06-06 20:18  
Торрент перезалито !
Hulk1987 
Модератор відео


З нами з: 14.02.09
Востаннє: 10.10.16
Повідомлень: 1306

2011-06-06 22:57  
simon 2 написано:
бітрейт: 2210 кб/с

У такого файлу не може бути такого маленького відео бітрейту.

DejaVu 
Відео Гуртом - підтримка та поширення
Відео Гуртом - підтримка та поширення


З нами з: 20.12.10
Востаннє: 03.12.16
Повідомлень: 754

2011-06-29 11:26  
Jatx_11 написано:
О, а це хіба не mini?

Теж так подумал, але розмір!
simon 2
Щоб знати точну характеристку фільму, користуйтесь: MediaInfo

SK1974 
Новенький


З нами з: 15.01.11
Востаннє: 07.12.16
Повідомлень: 15

2012-03-30 18:26  
і на що з цим розміром можна записати?
leroykendall 
Модератор HD


З нами з: 03.01.11
Востаннє: 20.11.16
Повідомлень: 749

2012-03-31 16:56  
SK1974 написано:
і на що з цим розміром можна записати?

На жорсткий диск.

Ваш часовий пояс: GMT + 2 Години

Нова тема   Відповісти