Завантажити та скачати торренти українською


Чотири пера / The Four Feathers (2002) 720p Eng | Sub UKR/Eng

Нові коментарі

Нова тема   Відповісти
Останній раз роздавалося aaazzz (2016-10-30)
Автор Повідомлення
DiGen 
Модератор HD та координатор Команди HD
Модератор HD та координатор Команди HD


З нами з: 12.11.09
Востаннє: 24.06.13
Повідомлень: 1452

2011-06-06 01:12  
Чотири пера / The Four Feathers (2002) 720p Eng | Sub UKR/Eng



Жанр: біографічний, драма, історичний, пригодницький
Країна: США, Великобританія



Кіностудія / кінокомпанія: Paramount Pictures, Miramax Films, Jaffilms
Режисер: Shekhar Kapur
Актори: Хіт Леджер, Кейт Хадсон, Джимон Хунсу, Майкл Шин, Кріс Маршал, Добі Опарей, Руперт Пенрі-Джонс, Вес Бентлі, Мохамед Боіч, Кемпбел Браун

Сюжет:
1884 рік. Перед відправленням британських війск до Судану молодий офіцер Гаррі Февершем подає у відставку. Його близькі та рідня сприймають це як прояв боягузства і Гаррі, щоб врятувати честь, відправляється на африканський континент…
У нього було все: батько — генерал, кохана, звання лейтенанта в непереможній англійській армії, вірні друзі. В один день він втратив все, і залишилось тільки чотири пера сорому


Тривалість: 02:11:37
Якість:
Відео:
кодек:
розмір кадру: 1280x536
бітрейт: 4153 кб/с

Аудіо:
мова: англійська
переклад: оригінал
кодек: 5.1
бітрейт: 448 кб/с

Субтитри:
мова: українська
тип: програмні (м'які)
формат: *.srt

Субтитри:
мова: англійська
тип: програмні (м'які)
формат: *.ass

MediaInfo:

General
Format : Matroska
File size : 4.37 GiB
Duration : 2h 11mn
Overall bit rate : 4 757 Kbps
Encoded date : UTC 2011-04-01 01:30:46
Writing application : mkvmerge v2.4.2 ('Oh My God') built on Jan 18 2009 17:30:28
Writing library : libebml v0.7.7 + libmatroska v0.8.1
Video #1
ID : 1
Format : AVC
Format/Info : Advanced Video Codec
Format profile : [email protected]
Format settings, CABAC : Yes
Format settings, ReFrames : 1 frame
Muxing mode : Container [email protected]
Codec ID : V_MPEG4/ISO/AVC
Duration : 2h 11mn
Bit rate : 4 022 Kbps
Nominal bit rate : 4 153 Kbps
Width : 1 280 pixels
Height : 536 pixels
Display aspect ratio : 2.35:1
Frame rate : 23.976 fps
Resolution : 24 bits
Colorimetry : 4:2:0
Scan type : Progressive
Bits/(Pixel*Frame) : 0.245
Stream size : 3.69 GiB (84%)
Title : The Four Feathers (2002).Tr_01.Video..[HURTOM] by DiGen
Writing library : core 68 r1195bm 5d75a9b
Encoding settings : cabac=1 / ref=1 / deblock=1:0:0 / analyse=0x3:0x13 / me=umh / subme=7 / psy_rd=0.0:0.0 / mixed_ref=0 / me_range=16 / chroma_me=1 / trellis=1 / 8x8dct=1 / cqm=0 / deadzone=21,11 / chroma_qp_offset=0 / threads=1 / thread_queue=1 / nr=0 / decimate=1 / mbaff=0 / bframes=0 / keyint=250 / keyint_min=25 / scenecut=40 / rc=abr / bitrate=4153 / ratetol=1.0 / qcomp=0.60 / qpmin=10 / qpmax=51 / qpstep=4 / ip_ratio=1.40 / aq=2:1.00
Language : English
Audio #2
ID : 2
Format : AC-3
Format/Info : Audio Coding 3
Codec ID : A_AC3
Duration : 2h 11mn
Bit rate mode : Constant
Bit rate : 640 Kbps
Channel(s) : 6 channels
Channel positions : Front: L C R, Surround: L R, LFE
Sampling rate : 48.0 KHz
Stream size : 603 MiB (13%)
Title : The Four Feathers (2002).Tr_02.A-ENG.[5.1-640].[HURTOM] by DiGen
Language : English
Text #3
ID : 3
Format : UTF-8
Codec ID : S_TEXT/UTF8
Codec ID/Info : UTF-8 Plain Text
Title : The Four Feathers (2002).Tr_03.A-UKR.srt.[HURTOM]
Language : Ukrainian
Text #4
ID : 4
Format : UTF-8
Codec ID : S_TEXT/UTF8
Codec ID/Info : UTF-8 Plain Text
Title : The Four Feathers (2002).Tr_04.A-ENG.srt.[HURTOM] by DiGen
Language : English
Скріншоти:








Подяки:
Alinea, uunium, VDKyiv, BMK12, Arustokrat812, RosXXX, Ljubava за роботу над Субтитрами

Джерело:
Реліз підготовлено в рамках проекту ВІДЕО ГУРТОМ

Особиста оцінка: 10 - без зайвих вагань рекомендую всім!
Мої наступні релізи:
HD 1080p/720p:

01. Ворог держави/Enemy of the State 720р - буду починати (чекаю доріжку від 1+1)
02. Льодовиковий період 2/Ice Age 2 720p (якщо буде укр. доріжка)
03. Достукатися до небес/Knockin' On Heaven's Door 720p (якщо буде укр. доріжка)
04. Люди в чорному 2/Men in Black 2 720/1080p
05. Форсаж 1, 2, 3/The Fast and the Furious 1, 2, 3 720p - почну завтра/післязавтра
06. Autumn in New York 720р
08. Співучасник / Collateral (2004) - як тільки буде укр. звук
09. Сайлент Хіл/Silent Hill (2006) 720p - не можу знайти УКР, доріжку.
10. Робокоп 1,2,3 (1987,1990,1993) 720p
11. Смертельні перегони 1,2/Death Race 1,2(2008/2010) 720p
12. Святий/The Saint 1080p - готовий, лише треба звук підігнати та оформити
13. Boondock Saints.1999.BD.Rip.720p - якщо буде укр.доріжка
14. Boondock Saints II.All Saints Day.BD.Rip.720p - якщо буде укр.доріжка
15. Rain.Man.1988.720p
16. One Flew Over the Cuckoo's Nest (1975) 720р
17. Rising Sun (1993) 720p
18. Blind Fury (1989) 1080і - готовий, лише треба звук підігнати та оформити
19. The Rock (1996) 720р - готовий, лише треба звук підігнати та оформити
20. Some Like It Hot (1959) 720p - - готовий, лише чекаю на звук
21. Миротворець / The Peacemaker (1997) 720р
22. Flashbacks of a Fool (2008) 720p - готовий, лише треба звук підігнати та оформити
23. Смертельні перегони 2000року (1975) 1080р - готове відео, лише треба саби
24. Bembi (1942) 720р
25. Private Parts (1997)
26. Requiem for a Dream (2000) 720р
27. Shichinin no samura (1954)

:

01. Формула 51/Formula 51
02. Коефіцієнт інтелекту/IQ (1994) - /720p


Золотий реліз (завантажене не впливає на рейтинг)
 Трекер:    Зареєстрований   

Завантажити / скачати фільм українською



відео для новачків



 Зареєстрований:   2011-06-14 02:34
 Розмір:   4.37 GB 
 Оцінка фільму:   9.7/10 (Голосів: 14)
   
Інші релізи
   Чотири пера / The Four Feathers (2002) NemoInFire  4 / 0   1.94 GB   2012-11-29 19:56 
Sviatoslav 
Свій


З нами з: 23.01.10
Востаннє: 08.12.16
Повідомлень: 87

2011-06-06 16:24  
Опечатка)
Цитата:
англійськой армії, верні друзі.


Додано через 1 хвилину 7 секунд:

Ще одна:
Цитата:
тільки четири пера сорому


Додано через 55 секунд:

І ще=)
Цитата:
сприймають эце

DiGen 
Модератор HD та координатор Команди HD
Модератор HD та координатор Команди HD


З нами з: 12.11.09
Востаннє: 24.06.13
Повідомлень: 1452

2011-06-06 21:37  
Ліньки було з англійської перекладати, тому знайшов опис на російському, але не все виправив, бо швидко робив (перед виходом на роботуSad (1) )
urij546724 
Відео Гуртом - фільмокрай
Відео Гуртом - фільмокрай


З нами з: 16.03.10
Востаннє: 07.12.16
Повідомлень: 5222

2011-06-14 12:14  
DiGen написано:
бітрейт: кб/с

Допиши.

Віктор 
Відео Гуртом - субтитрування
Відео Гуртом - субтитрування


З нами з: 09.01.10
Востаннє: 08.12.16
Повідомлень: 8663

2011-06-14 12:19  
Чи то я осліп, але щось не бачу української назви)) Чи це нове правило для субтитрованих фільмів?

Фільмографія Хіта Леджера http://toloka.to/t16874

urij546724 
Відео Гуртом - фільмокрай
Відео Гуртом - фільмокрай


З нами з: 16.03.10
Востаннє: 07.12.16
Повідомлень: 5222

2011-06-14 12:22  
w2958l написано:
Чи то я осліп

Та я щось протупив.
DiGen, допиши ще укр назву.

DiGen 
Модератор HD та координатор Команди HD
Модератор HD та координатор Команди HD


З нами з: 12.11.09
Востаннє: 24.06.13
Повідомлень: 1452

2011-06-14 13:06  
Та то я видно коли редагував, випадково видалив.
Виправляю.

Додано через 17 хвилин 7 секунд:

Фільмографію обов'язково додам, але з пк, бо тепер при редагуванні телефон висне - чотири рази зависав при зміні назви.

POMEO 
Відео Гуртом - запис з ТБ
Відео Гуртом - запис з ТБ


З нами з: 01.07.08
Востаннє: 08.12.16
Повідомлень: 785

2012-07-05 20:54  
Нещодавно показували чи то по 1+1 чи по ТРК Україна з нашим перекладом - непоганий фільм.
Ваш часовий пояс: GMT + 2 Години

Нова тема   Відповісти