Завантажити та скачати торренти українською


VA - Guitar Kolo (серія "Jazz Коло") (2009) [APE] | Jazz

Нові коментарі

Нова тема   Відповісти
Автор Повідомлення
ssTAss 
Модератор музики


З нами з: 05.07.08
Востаннє: 09.12.16
Повідомлень: 10948

2011-06-06 00:45  
VA - Guitar Kolo (серія "Jazz Коло") (2009) [APE] | Jazz



Стиль: Jazz
Країна: Україна
Сайти: Офіційний сайт
Видавець: Tempora
Виконавці:
VA
Пісні:
    1. Round Midnight (Володимир Молотков)
    музика: T. Monk
    2. Brand New (Володимир Шабалтас, (Схід-Side)
    музика: В. Шабалтас
    3. On the Thin Ice (Сергій Овсяников)
    музика: С. Овсяников
    4. Adventure (Олександр Павлов)
    музика: О. Павлов
    5. Take Five (Енвер Ізмайлов)
    музика: P. Desmond
    6. Lazy Bonez (Дмитро Коваленко)
    музика: Д. Коваленко
    7. Voyage (Володимир "Нос" Ліхошва)
    музика: В. "Нос" Ліхошва
    8. Freedom (Сергій Капелюшок)
    музика: С. Капелюшок
    9. Katmandu (Станіслав Мороз)
    музика: С. Мороз
    10. Samba (Андрій Бадюк)
    музика: С. Шадурський
    11. Inspiration (Віталій Макунін)
    музика: В. Макунін
    12. Чом ти не прийшов (Сергій Чантурія)
    музика: українська народна пісня
    13. Concierto de Aranjuez (Олексій Вагнер, Олексій Крупський)
    музика: J. Rodrigo
    14. Рівновага (Олександр Могилевський)
    музика: О. Могилевський
    15. Goodbye, Mr. Hummer (Ігор Бойко)
    музика: І. Бойко
log

Exact Audio Copy V1.0 beta 1 from 15. November 2010

EAC extraction logfile from 15. May 2011, 14:49

Jazz-Kolo / Guitar Kolo

Used drive : HL-DT-STDVDRAM GH60N Adapter: 0 ID: 0

Read mode : Secure
Utilize accurate stream : Yes
Defeat audio cache : Yes
Make use of C2 pointers : No

Read offset correction : 667
Overread into Lead-In and Lead-Out : No
Fill up missing offset samples with silence : Yes
Delete leading and trailing silent blocks : No
Null samples used in CRC calculations : Yes
Used interface : Native Win32 interface for Win NT & 2000

Used output format : Monkey's Audio Lossless Encoder
Selected bitrate : Fast Lossless Compression
Quality : High
Add ID3 tag : Yes
Command line compressor : C:\Program Files (x86)\Monkey's Audio\MAC.exe

TOC of the extracted CD

Track | Start | Length | Start sector | End sector
---------------------------------------------------------
1 | 0:00.00 | 6:53.07 | 0 | 30981
2 | 6:53.07 | 6:55.57 | 30982 | 62163
3 | 13:48.64 | 5:16.37 | 62164 | 85900
4 | 19:05.26 | 6:27.12 | 85901 | 114937
5 | 25:32.38 | 3:26.55 | 114938 | 130442
6 | 28:59.18 | 6:40.67 | 130443 | 160509
7 | 35:40.10 | 4:05.28 | 160510 | 178912
8 | 39:45.38 | 6:34.25 | 178913 | 208487
9 | 46:19.63 | 5:40.50 | 208488 | 234037
10 | 52:00.38 | 4:16.11 | 234038 | 253248
11 | 56:16.49 | 2:00.18 | 253249 | 262266
12 | 58:16.67 | 3:32.37 | 262267 | 278203
13 | 61:49.29 | 2:35.49 | 278204 | 289877
14 | 64:25.03 | 7:30.14 | 289878 | 323641
15 | 71:55.17 | 5:19.44 | 323642 | 347610

Range status and errors

Selected range

Filename D:\Razda4i\Music\GuitarKolo\Jazz-Kolo - Guitar Kolo.wav

Peak level 100.0 %
Extraction speed 0.1 X
Range quality 100.0 %
Test CRC 63089E51
Copy CRC 63089E51
Copy OK

No errors occurred

End of status report

==== Log checksum 31D48D3ABC4F306BFA00CF2F81086AF6E3FD6CBEA781015D8A7CA94BAF25A330 ====
fooCDtect

fooCDtect - foobar2000 + auCDtect, baralgin.

auCDtect: CD records authenticity detector, version 0.8.2
Copyright (c) 2004 Oleg Berngardt. All rights reserved.
Copyright (c) 2004 Alexander Djourik. All rights reserved.

mode: 0

=======================================================
Track: 01 - Round Midnight
Quality: CDDA, 100%
=======================================================
Track: 02 - Brand New
Quality: CDDA, 100%
=======================================================
Track: 03 - On The Thin Ice
Quality: CDDA, 100%
=======================================================
Track: 04 - Adventure
Quality: CDDA, 100%
=======================================================
Track: 05 - Take Five
Quality: CDDA, 100%
=======================================================
Track: 06 - Voyage
Quality: MPEG, 79%
=======================================================
Track: 07 - Lazy Bonez
Quality: CDDA, 100%
=======================================================
Track: 08 - Freedom
Quality: CDDA, 43%
=======================================================
Track: 09 - Katmandu
Quality: CDDA, 99%
=======================================================
Track: 10 - Samba
Quality: CDDA, 100%
=======================================================
Track: 11 - Inspiration
Quality: CDDA, 58%
=======================================================
Track: 12 - Chom Ty Ne Pryishow
Quality: MPEG, 95%
=======================================================
Track: 13 - Concerto de Aranjues
Quality: CDDA, 100%
=======================================================
Track: 14 - Balance
Quality: CDDA, 99%
=======================================================
Track: 15 - Goodbye, Mr. Hummer
Quality: CDDA, 100%
=======================================================
Тривалість: 01:17:15
Мова: без слів
Аудіо-кодек: APE
Бітрейт: 827 кб/с
Джерело: інший трекер
Додаткова інформація:
Здається, гітара досі залишається одним з найбільш популярних інструментів в очах молоді. Хоча цього не скажеш, мабуть, про український джаз – тут гітаристи зовсім не так часто беруть на себе роль головних героїв. При тому, що гарних майстрів вистачає – інша справа, що почути їх не завжди можна легко. У всякому разі, представлений "довідник" зовсім не претендує на всеосяжність – до нього потрапили явно не всі, хто міг би. І Ви побачите, що тут йдеться не лише про технічну майстерність – гарний музикант має зацікавити ще й стилістично, композиційно, вірно? Та й, зрештою, значно цікавіше спостерігати не так віртуозні пасажі, як стилі, що їм надають перевагу наші гітаристи. Під час концерту Guitar Kolo основний тон задавав ф’южн – але на студійній збірці це не так кидається в очі. Тим краще – бо більш яскравим виглядає кожен відступ від загального русла. І тут таких відступів, взагалі-то, цілком вистачає. Саме тому це зовсім не сухий "довідник" – це збірка, яку дійсно цікаво слухати. Та й корисно.


Якщо Ви справді бажаєте підтримати українське - після прослуховування, якщо музика вам сподобалась, придбайте ліцензійний диск. Підтримаймо вітчизняних виконавців!


Срібний реліз (на рейтинг впливає 50% завантаженого)
 Трекер:    Зареєстрований   

Завантажити / скачати українську музику



відео для новачків



 Зареєстрований:   2011-06-06 00:45
 Розмір:   460 MB 
 Оцінка музики:   7.7/10 (Голосів: 15)
   
Ваш часовий пояс: GMT + 2 Години

Нова тема   Відповісти