Завантажити та скачати торренти українською


VA - Sax Kolo (серія "Jazz Koлo") (2009) [APE] | Jazz

Нові коментарі

Нова тема   Відповісти
Автор Повідомлення
ssTAss 
Модератор музики


З нами з: 05.07.08
Востаннє: 04.12.16
Повідомлень: 10935

2011-06-06 00:29  
VA - Sax Kolo (серія "Jazz Koлo") (2009) [APE] | Jazz



Стиль: Jazz
Країна: Україна
Сайти: Офіційний сайт
Видавець: Tempora
Виконавці:
VA
Пісні:
    1. Щедрик (Максим Кочетов)
    музика: М. Леонтович
    2. Autumn in the Glier School (Дмитро "Бобін" Александров, Схід-Side)
    музика: Д. Александров
    3. Tolk (Олександр Рукомойніков, Сергій Давидов)
    музика: Л. Хайсман
    4. Ballad of the Silent Sea (Артем Менделенко, (Тріо Наталії Лебедєвої)
    музика: Н. Лебедєва
    5. I Wish You Love (Ігор Дьяченко)
    музика: Charles Trenet
    6. Returning (Квартет Віталія Іванова)
    музика: В. Іванов
    7. Late Night Home Coming (Богдан Гуменюк)
    музика: Д. Коваленко
    8. Besame Mucho (Сергій Цимбал)
    музика: C. Velazquez
    9. У колі друзів (Зеновій Ковпак)
    музика: І. Закус
    10. Petals (Дмитро Маркітантов)
    музика: R. Towner
    11. For Tenor Sax Solo (Юрій Яремчук)
    музика: Ю. Яремчук
    12. Samba (Ігор Чернов)
    музика: І. Чернов
    13. Fly (Іван Бондарєв)
    музика: І. Бондарєв
    14. Солодкі пальчики / Sweet Fingers (Ігор Рудий)
    музика: Ю. Шепета
    15. Щедрик (Київський квартет саксофоністів)
    музика: М. Леонтович
log

Exact Audio Copy V1.0 beta 1 from 15. November 2010

EAC extraction logfile from 15. May 2011, 13:12

Jazz-Kolo / Sax Kolo

Used drive : HL-DT-STDVDRAM GH60N Adapter: 0 ID: 0

Read mode : Secure
Utilize accurate stream : Yes
Defeat audio cache : Yes
Make use of C2 pointers : No

Read offset correction : 667
Overread into Lead-In and Lead-Out : No
Fill up missing offset samples with silence : Yes
Delete leading and trailing silent blocks : No
Null samples used in CRC calculations : Yes
Used interface : Native Win32 interface for Win NT & 2000

Used output format : Monkey's Audio Lossless Encoder
Selected bitrate : Fast Lossless Compression
Quality : High
Add ID3 tag : Yes
Command line compressor : C:\Program Files (x86)\Monkey's Audio\MAC.exe

TOC of the extracted CD

Track | Start | Length | Start sector | End sector
---------------------------------------------------------
1 | 0:00.00 | 4:15.74 | 0 | 19198
2 | 4:15.74 | 5:45.27 | 19199 | 45100
3 | 10:01.26 | 5:03.10 | 45101 | 67835
4 | 15:04.36 | 7:12.38 | 67836 | 100273
5 | 22:16.74 | 3:29.22 | 100274 | 115970
6 | 25:46.21 | 6:39.61 | 115971 | 145956
7 | 32:26.07 | 7:28.11 | 145957 | 179567
8 | 39:54.18 | 4:02.38 | 179568 | 197755
9 | 43:56.56 | 4:26.61 | 197756 | 217766
10 | 48:23.42 | 5:11.46 | 217767 | 241137
11 | 53:35.13 | 5:00.42 | 241138 | 263679
12 | 58:35.55 | 3:55.68 | 263680 | 281372
13 | 62:31.48 | 3:08.53 | 281373 | 295525
14 | 65:40.26 | 4:55.49 | 295526 | 317699
15 | 70:36.00 | 3:02.36 | 317700 | 331385

Range status and errors

Selected range

Filename D:\Razda4i\Music\SaxKolo\Jazz-Kolo - Sax Kolo.wav

Peak level 100.0 %
Extraction speed 0.0 X
Range quality 99.9 %
Copy CRC 516E1F0B
Copy OK

No errors occurred

End of status report

==== Log checksum 0B0469FFDA8DF2715F57B8071ECBCE57DB891463BC28B2BE8EFC3C9FE667C63A ====
fooCDtect

fooCDtect - foobar2000 + auCDtect, baralgin.

auCDtect: CD records authenticity detector, version 0.8.2
Copyright (c) 2004 Oleg Berngardt. All rights reserved.
Copyright (c) 2004 Alexander Djourik. All rights reserved.

mode: 0

=======================================================
Track: 01 - Shchedryk
Quality: CDDA, 100%
=======================================================
Track: 02 - Autumn in the Glier School
Quality: CDDA, 100%
=======================================================
Track: 03 - Tolk
Quality: CDDA, 100%
=======================================================
Track: 04 - Ballad of the Silent Sea
Quality: CDDA, 99%
=======================================================
Track: 05 - I Wish Yoy Love
Quality: CDDA, 100%
=======================================================
Track: 06 - Returning
Quality: CDDA, 100%
=======================================================
Track: 07 - Late Nigth Home Caming
Quality: MPEG, 95%
=======================================================
Track: 08 - Besame Mucho
Quality: CDDA, 86%
=======================================================
Track: 09 - U Koli Druziv
Quality: CDDA, 100%
=======================================================
Track: 10 - Petals
Quality: CDDA, 100%
=======================================================
Track: 11 - For Tenor Sax Solo
Quality: CDDA, 100%
=======================================================
Track: 12 - Samba
Quality: CDDA, 100%
=======================================================
Track: 13 - Fly
Quality: CDDA, 100%
=======================================================
Track: 14 - Sweet Fingers
Quality: CDDA, 99%
=======================================================
Track: 15 - Shchedryk
Quality: CDDA, 99%
=======================================================
Тривалість: 01:13:38
Мова: без слів
Аудіо-кодек: APE
Бітрейт: 785 кб/с
Джерело: інший трекер
Додаткова інформація:
"Дуже тішить, що українські саксофоністи перейняли естафету у басистів і представили свій інструмент гідно та, сподіваюся, об’єктивно. Різна музика, різні підходи, різне звучання. Але від цього диск тільки виграє. Переконаний, кожен слухач почує тут той саксофон, який йому найбільш до вподоби.

Отже, ще один збірник-каталог українських інструменталістів від Джаз-Кола.

Вдячний за це Юлії Олійник, видавництву "Темпора", усім музикантам, Вячеку Криштофовичу-мол., Олексію Когану, Віктору Овчіннікову, усім, хто послухає цей диск.

Ігор Закус"

(процитовано з поліграфії до видання)


Якщо Ви справді бажаєте підтримати українське - після прослуховування, якщо музика вам сподобалась,
придбайте ліцензійний диск.
Підтримаймо вітчизняних виконавців!


Срібний реліз (на рейтинг впливає 50% завантаженого)
 Трекер:    Зареєстрований   

Завантажити / скачати українську музику



відео для новачків



 Зареєстрований:   2011-06-06 00:29
 Розмір:   417 MB 
 Оцінка музики:   8.3/10 (Голосів: 16)
   
Ваш часовий пояс: GMT + 2 Години

Нова тема   Відповісти