Завантажити та скачати торренти українською


VA - Концерт пам’яті Сергія Кузьмінського (Брати Гадюкіни) - Я вернувся домів (2011) [APE] | Rock & Roll

Нові коментарі

Нова тема   Відповісти
Автор Повідомлення
iwan wan 
VIP


З нами з: 01.10.09
Востаннє: 10.12.16
Повідомлень: 1762

2011-06-05 14:01  
VA - Концерт пам’яті Сергія Кузьмінського (Брати Гадюкіни) - Я вернувся домів (2011) [APE] | Rock & Roll



Стиль: Rock & Roll
Країна: Україна
Сайти: Офіційний сайт
Видавець: Гадюкіни Рекордз
Пісні та їх виконавці :
    01. Звьоздочка моя (Бумбокс)
    02. Чуваки всьо чотко (Воплі Відоплясова)
    03. Гей Іване (Гайдамаки)
    04. 117 стаття (Димна Суміш)
    05. Ми - хлопці з Бандерштату (Кому Вниз)
    06. Америка (Mad Heads XL)
    07. Аріведерчі Рома (Мандри)
    08. Приїдь до мене у Мостиська (Океан Ельзи)
    09. Було не любити (Перкалаба)
    10. Емігрант сонг (Піккардійська терція)
    11. Дівчина з Коломиї (Тарас Чубай)
    12. Файне місто Тернопіль (Танок На Майдані Конґо)
    13. Міську вважай (ТІК)
    14. Місячне сяйво твого тіла (The Вйо)
    15. Роксоляна (ФлайzZza)

Тривалість: 00:58:19
Мова: українська
Аудіо-кодек: APE
Бітрейт: 1022 кб/с
Джерело: Рутракер орг
Додаткова інформація:
3 червня відбувся концерт пам’яті Сергія Кузьмінського за участі відомих українських груп, які переспівали пісні Братів Гадюкіних. Кожен глядач міг отримати промо-диск із студійними записами переспівів, який ви бачите перед собою.
log
Exact Audio Copy V1.0 beta 2 from 29. April 2011
EAC extraction logfile from 4. June 2011, 0:17
Брати Гадюкіни / Я вернувся домів. Концерт пам'яті Сергія Кузьмінського.
Used drive : PIONEER DVD-RW DVR-111D Adapter: 4 ID: 0
Read mode : Secure
Utilize accurate stream : Yes
Defeat audio cache : Yes
Make use of C2 pointers : No
Read offset correction : 48
Overread into Lead-In and Lead-Out : No
Fill up missing offset samples with silence : Yes
Delete leading and trailing silent blocks : No
Null samples used in CRC calculations : Yes
Used interface : Native Win32 interface for Win NT & 2000
Used output format : Internal WAV Routines
Sample format : 44.100 Hz; 16 Bit; Stereo
TOC of the extracted CD
Track | Start | Length | Start sector | End sector
---------------------------------------------------------
1 | 0:00.00 | 3:27.68 | 0 | 15592
2 | 3:27.68 | 4:10.00 | 15593 | 34342
3 | 7:37.68 | 3:17.33 | 34343 | 49150
4 | 10:55.26 | 4:31.39 | 49151 | 69514
5 | 15:26.65 | 3:53.13 | 69515 | 87002
6 | 19:20.03 | 4:48.72 | 87003 | 108674
7 | 24:09.00 | 3:30.00 | 108675 | 124424
8 | 27:39.00 | 4:50.00 | 124425 | 146174
9 | 32:29.00 | 4:05.29 | 146175 | 164578
10 | 36:34.29 | 3:11.20 | 164579 | 178923
11 | 39:45.49 | 4:19.00 | 178924 | 198348
12 | 44:04.49 | 3:50.00 | 198349 | 215598
13 | 47:54.49 | 2:53.11 | 215599 | 228584
14 | 50:47.60 | 3:55.60 | 228585 | 246269
15 | 54:43.45 | 3:34.73 | 246270 | 262392
Range status and errors
Selected range
Filename S:\release\Ya vernuvsya domiv\Braty_Gadukiny.Ya_vernuvsya_domiv.2011.EAC.APE.CUE.LOG.Silkmann.wav
Peak level 98.7 %
Extraction speed 7.7 X
Range quality 100.0 %
Test CRC 84A370B0
Copy CRC 84A370B0
Copy OK
No errors occurred
End of status report
==== Log checksum B7061109D4FCE22D939BFDC3ABFF0696F9960F4E2EB11F6EED43B35E726B8377 ====
Також на Толоці Ви можете завантажити:
Брати Гадюкіни | Дискографія (4 альбоми + 3 Live + 3 Compilation) (1989-2007) [MP3] | Punk Rock
ВБрати Гадюкіни | Дискографія [4 альбоми + 3 Live] (1989-2006) [APE] | Punk Rock
Брати Гадюкіни - Вродило (2006) | Rock
Брати Гадюкіни - Саундтрек до фільму "Вперед, за скарбами гетьмана" (1993) [MP3] | Rock
Брати Гадюкіни - Перші кроки (невидане) (1988) [MP3] | Punk Rock
[Punk / Folk / Blues] Брати Гадюкіни - Вродило. LIVE у Києві (2006) DVD-9
Брати Гадюкіни - Ми - хлопці з Бандерштадту (1991) [MP3, vinyl rip] | Rock-n-Roll
VA - Концерт пам’яті Сергія Кузьмінського (Брати Гадюкіни) - Я вернувся домів (2011) [MP3] | Rock & Roll


Якщо Ви справді бажаєте підтримати українське - після прослуховування, якщо музика вам сподобалась, придбайте ліцензійний диск. Підтримаймо вітчизняних виконавців!


Срібний реліз (на рейтинг впливає 50% завантаженого)
 Трекер:    Зареєстрований   

Завантажити / скачати українську музику



відео для новачків



 Зареєстрований:   2011-06-05 14:01
 Розмір:   427 MB 
 Оцінка музики:   10/10 (Голосів: 24)
   
ssTAss 
Модератор музики


З нами з: 05.07.08
Востаннє: 10.12.16
Повідомлень: 10954

2011-06-05 14:22  
iwan wan написано:
[MP3]

iwan wan написано:
Аудіо-кодек: MP3

Wide grin

iwan wan 
VIP


З нами з: 01.10.09
Востаннє: 10.12.16
Повідомлень: 1762

2011-06-05 14:41  
Вже ні
musicfan 
Модератор музики


З нами з: 27.01.09
Востаннє: 09.12.16
Повідомлень: 893

2011-06-06 15:41  
Обкладинки:
cover
disc
inner
outer

Едм 
VIP


З нами з: 18.05.08
Востаннє: 10.12.16
Повідомлень: 1209

2011-06-07 19:34  
Чуваки! Оброблення котрої композиції було для вас найбільш несподіваним?



Чи то тіко у мене (foobar2000) 15 доріжка з не проіндексованою тривалістю?

ssTAss 
Модератор музики


З нами з: 05.07.08
Востаннє: 10.12.16
Повідомлень: 10954

2011-06-07 22:23  
Едм написано:
Чи то тіко у мене (foobar2000) 15 доріжка з не проіндексованою тривалістю?

напевно
в мене все нормально (3:35)
може просто зробіть перевірку (в торрент програмі) релізу... або перекачайте торрент-файл і поставте на перевірку.. само довантаже

Dimaxa 
Новенький


З нами з: 10.11.11
Востаннє: 04.11.16
Повідомлень: 5

2011-11-12 22:35  
Немає слів, збірка супер! Українська музика це сила!
Велике спасибі Сергію Кузьмінському за чудову музику, земля йому пухом...

sasko_hardcore 
Новенький


З нами з: 18.04.12
Востаннє: 21.06.12
Повідомлень: 2

2012-04-20 13:28  
наскільки пам'ятаю,там ще Ляпіс Трубєцкой пісню "Наркомани на городі" виконував,чи я помиляюсь?
Ваш часовий пояс: GMT + 2 Години

Нова тема   Відповісти