Завантажити та скачати торренти українською


Cherkasy Jazz Quintet - We like funky-jazz, and You?.. (2008) [FLAC] | Jazz / Funk

Нові коментарі

Нова тема   Відповісти
Останній раз роздавалося VIC75 (2016-12-10)
Автор Повідомлення
ssTAss 
Модератор музики


З нами з: 05.07.08
Востаннє: 10.12.16
Повідомлень: 10950

2011-06-05 00:46  
Cherkasy Jazz Quintet - We like funky-jazz, and You?.. (2008) [FLAC] | Jazz / Funk



Стиль: Jazz Funk
Країна, місто: Україна, Черкаси
Сайти: Офіційний сайт
Видавець: Музичний Центр
Виконавці:
Валерій Кириченко - труба, - соліст оркестру Черкаського обласного муз-драм театру ім. Т.Г. Шевченка;
Микола Євпак - тенор-саксофон, - викладач естрадно-джазового відділення Черкаського музичного училища ім. Гулака-Артемовського (клас саксофону);
Олександр Шнайдер - контрабас, - соліст Черкаського камерного оркестру Черкаської обласной філармонії;
Олександр Черкашин - ударні, викладач Черкаської музичної школи №1;
Сергій Крашенінніков - фортепіано, керівник, джазовий ентузіаст (в минулому інженер-програміст)
Пісні:
    1. A Prescription for the Blues
    2. The Cat
    3. So Tired
    4. Contemplate
    5. On the Sunny Side of the Nevsky
    6. The Sidewinder
    7. The Cracow Jazz Festival
    8. Recuerdame
    9. Ceora
    10. Sister Sadie
    11. Silver's Hands of Gold
log

Exact Audio Copy V0.99 prebeta 4 from 23. January 2008

Отчёт EAC об извлечении, выполненном 30. октября 2008, 23:10

Cherkasy Jazz Quintet / We like funky-jazz, and you?

Дисковод: SONY CD-RW CRX230ED Adapter: 1 ID: 0

Режим чтения : Достоверность
Использование точного потока : Да
Отключение кэша аудио : Да
Использование указателей C2 : Нет

Коррекция смещения при чтении : 6
Способность читать области Lead-in и Lead-out : Нет
Заполнение пропущенных сэмплов тишиной : Да
Удаление блоков с тишиной в начале и конце : Нет
При вычислениях CRC использовались нулевые сэмплы : Да
Интерфейс : Встроенный Win32-интерфейс для Win NT/2000

Выходной формат : Внутренние WAV-операции
Формат сэмплов : 44.100 Гц; 16 бит; стерео

TOC извлечённого CD

Трек | Старт | Длительность | Начальный сектор | Конечный сектор
---------------------------------------------------------------------
1 | 0:00.00 | 4:53.13 | 0 | 21987
2 | 4:53.13 | 4:58.55 | 21988 | 44392
3 | 9:51.68 | 4:57.11 | 44393 | 66678
4 | 14:49.04 | 6:29.18 | 66679 | 95871
5 | 21:18.22 | 6:06.28 | 95872 | 123349
6 | 27:24.50 | 7:34.52 | 123350 | 157451
7 | 34:59.27 | 5:47.54 | 157452 | 183530
8 | 40:47.06 | 4:59.08 | 183531 | 205963
9 | 45:46.14 | 5:25.00 | 205964 | 230338
10 | 51:11.14 | 5:17.28 | 230339 | 254141
11 | 56:28.42 | 4:23.11 | 254142 | 273877

Характеристики диапазона извлечения и сообщения об ошибках

Выбранный диапазон

Имя файла E:\CD RIP\Cherkasy Jazz Quintet\Cherkasy Jazz Quintet - We like funky-jazz, and you.wav

Пиковый уровень 100.0 %
Качество диапазона 99.9 %
CRC копии 2959B6E8
Копирование... OK

Ошибок не произошло

Конец отчёта
Тривалість: 01:00:52
Мова: без слів
Аудіо-кодек: FLAC
Бітрейт: 945 кб/с
Джерело: рутрекер
Додаткова інформація:
"Говорити про джаз – означає втрачати час, коли можна послухати цю прекрасну музику. Максимум, що можна зробити – це підняти келих і проголосити тост за здоров'я наших черкаських музикантів, за цих дивовижних, талановитих і захоплених людей. За музикантів, які під орудою невтомного Сергія Крашеніннікова ось уже 15 років грають і радують слухачів своїми неповторними в усіх відношеннях (це ж імпровізація!) композиціями.

Ну, і щоб два рази не вставати – за нас з Вами, дорогі друзі, за людей, які люблять свободу, люблять життя і люблять один одного. Нас мало, але ми граємо і слухаємо джаз, не дивлячись ні на що. Нас можна упізнати за легкою усмішкою, за ледь помітним похитування головою та пальцями, які відбивають такт по коліну! Вмикаєте й налаштовуйтесь – все у нас буде просто джаз! "

Артур Оганесян (інформація з поліграфії до CD)


Якщо Ви справді бажаєте підтримати українське - після прослуховування, якщо музика вам сподобалась,
придбайте ліцензійний диск.
Підтримаймо вітчизняних виконавців!


Срібний реліз (на рейтинг впливає 50% завантаженого)
 Трекер:    Зареєстрований   

Завантажити / скачати українську музику



відео для новачків



 Зареєстрований:   2011-06-05 00:46
 Розмір:   412 MB 
 Оцінка музики:   6.6/10 (Голосів: 8)
   
imonko 
Відео Гуртом - фільмокрай
Відео Гуртом - фільмокрай


З нами з: 20.07.08
Востаннє: 31.10.16
Повідомлень: 7309

2011-10-13 08:27  
ssTAss написано:
(2008)

на постері 2005, та й ще десь здибав таке

Skiff 
музика
музика


З нами з: 12.11.07
Востаннє: 09.12.16
Повідомлень: 3051

2011-10-13 08:35  
То було здійснено запис. Написано ж наживо.
Видання 2008-го.

Ваш часовий пояс: GMT + 2 Години

Нова тема   Відповісти