Завантажити та скачати торренти українською


Cherkasy Jazz Quintet - Remembering the Beatles (2009) [FLAC] | Jazz

Нові коментарі

Нова тема   Відповісти
Автор Повідомлення
ssTAss 
Модератор музики


З нами з: 05.07.08
Востаннє: 07.12.16
Повідомлень: 10947

2011-06-05 00:28  
Cherkasy Jazz Quintet - Remembering the Beatles (2009) [FLAC] | Jazz



Стиль: Jazz
Країна, місто: Україна, Черкаси
Сайти: Офіційний сайт
Видавець: автор (за підтримки ОТП Банку)
Виконавці:
Валерій Кириченко - труба, - соліст оркестру Черкаського обласного муз-драм театру ім. Т.Г. Шевченка;
Микола Євпак - тенор-саксофон, - викладач естрадно-джазового відділення Черкаського музичного училища ім. Гулака-Артемовського (клас саксофону);
Олександр Шнайдер - контрабас, - соліст Черкаського камерного оркестру Черкаської обласной філармонії;
Олександр Черкашин - ударні, викладач Черкаської музичної школи №1;
Сергій Крашенінніков - фортепіано, керівник, джазовий ентузіаст (в минулому інженер-програміст)

за участю
Сергій Калініченко - тромбон
Єгор Гавриленко - бас-гітара
Пісні:
    1. I Saw Her Standing There (from "Please Please Me" 1963)
    музика: P. McCartney
    2. It Won't Be Long (from "With The Beatles" 1963)
    музика: J. Lennon
    3. If I Fell (from "A Hard Day's Night" 1964)
    музика: J. Lennon
    4. Eight Days A Week (from "Beatles For Sale" 1964)
    музика: P. McCartney
    5. Ticket To Ride (from "Help!" 1965)
    6. The Word (from "Rubber Soul" 1965)
    музика: J. Lennon/P. McCartney
    7. Here, There And Everywhere (from "Revolver" 1966)
    музика: P. McCartney
    8. She's Leaving Home (from "Sgt. Pepper's Lonely Hearts Club Band" 1967)
    музика: P. McCartney
    9. The Fool On The Hill (from "Magical Mystery Tour" 1967)
    музика: P. McCartney
    10. Birthday (from "The Beatles (White Album)" 1968)
    музика: J. Lennon/P. McCartney
    11. Hey Bulldog (from "Yellow Submarine" 1969)
    музика: J. Lennon
    12. Something (from "Abbey Road" 1969)
    музика: G. Harrison
    13. One After 909 (from "Let It Be" 1970)
    музика: J. Lennon
log

Exact Audio Copy V1.0 beta 1 from 15. November 2010

EAC extraction logfile from 6. May 2011, 12:07

Cherkasy Jazz Quintet / Remembering The Beatles

Used drive : SlimtypeDVDRW SSM-8515S Adapter: 1 ID: 0

Read mode : Secure
Utilize accurate stream : Yes
Defeat audio cache : Yes
Make use of C2 pointers : No

Read offset correction : 594
Overread into Lead-In and Lead-Out : No
Fill up missing offset samples with silence : Yes
Delete leading and trailing silent blocks : No
Null samples used in CRC calculations : No
Used interface : Native Win32 interface for Win NT & 2000

Used output format : User Defined Encoder
Selected bitrate : 768 kBit/s
Quality : High
Add ID3 tag : No
Command line compressor : d:\Program Files\Exact Audio Copy\FLAC\FLAC.EXE
Additional command line options : -8 -V %s

TOC of the extracted CD

Track | Start | Length | Start sector | End sector
---------------------------------------------------------
1 | 0:00.00 | 3:58.29 | 0 | 17878
2 | 3:58.29 | 5:13.13 | 17879 | 41366
3 | 9:11.42 | 3:34.08 | 41367 | 57424
4 | 12:45.50 | 4:04.23 | 57425 | 75747
5 | 16:49.73 | 3:51.13 | 75748 | 93085
6 | 20:41.11 | 4:42.08 | 93086 | 114243
7 | 25:23.19 | 4:37.73 | 114244 | 135091
8 | 30:01.17 | 3:16.05 | 135092 | 149796
9 | 33:17.22 | 3:53.20 | 149797 | 167291
10 | 37:10.42 | 2:59.33 | 167292 | 180749
11 | 40:10.00 | 4:29.34 | 180750 | 200958
12 | 44:39.34 | 3:28.06 | 200959 | 216564
13 | 48:07.40 | 3:41.46 | 216565 | 233185

Range status and errors

Selected range

Filename D:\temp\Cherkasy Jazz Quintet - Remembering The Beatles.wav

Peak level 98.9 %
Extraction speed 0.1 X
Range quality 99.9 %
Test CRC 7E76F6A5
Copy CRC 7E76F6A5
Copy OK

No errors occurred

AccurateRip summary

Track 1 not present in database
Track 2 not present in database
Track 3 not present in database
Track 4 not present in database
Track 5 not present in database
Track 6 not present in database
Track 7 not present in database
Track 8 not present in database
Track 9 not present in database
Track 10 not present in database
Track 11 not present in database
Track 12 not present in database
Track 13 not present in database

None of the tracks are present in the AccurateRip database

End of status report
Тривалість: 00:51:49
Мова: без слів
Аудіо-кодек: FLAC
Бітрейт: 875 кб/с
Джерело: інший трекер (виправлені теги, додані скани)
Додаткова інформація:
"Чи варто повторюватися стосовно того, що двадцяте сторіччя (подібно до вчорашнього дня) все ще відсвічує в нас у сьогоденні. Однією з яскравих подій "вчорашнього століття" був і залишається фантастичний спалах творчості "Бітлз", що багато важить для нас і досі. Їх музичний геній відбився у всіх музичних жанрах сучасності – академічних і естрадних, але не так багато в музиці імпровізаційній. Кількість джазових альбомів, присвячених творчості "Бітлз", дещо більше десятка (і це за 50 років!). Новий альбом прекрасного (і креативного) колективу Cherkasy Jazz Quintet Сергія Крашенінникова – наш скромний внесок в скарбничку джазових версій пісень Ліверпульської четвірки.

Отже – тринадцять довгограючих альбомів "The Beatles" (у хронологічному порядку), по одній пісні з кожного. Щось ближче до оригіналу, щось далі: джаз – музика, вільна в творчих пошуках і знахідках.

Сподіватимемося, що цей новий CD Cherkasy Jazz Quintet стане приємним подарунком і бітлофілам, і любителям джазу (а це далеко не завжди одне й те саме). Завдання непросте (але здійсненне?)."

Дмитро Зінков (інформація з поліграфії до CD)


Якщо Ви справді бажаєте підтримати українське - після прослуховування, якщо музика вам сподобалась,
придбайте ліцензійний диск.
Підтримаймо вітчизняних виконавців!


Срібний реліз (на рейтинг впливає 50% завантаженого)
 Трекер:    Зареєстрований   

Завантажити / скачати українську музику



відео для новачків



 Зареєстрований:   2011-06-05 00:28
 Розмір:   331 MB 
 Оцінка музики:   6.6/10 (Голосів: 8)
   
Ваш часовий пояс: GMT + 2 Години

Нова тема   Відповісти