Завантажити та скачати торренти українською


Легенди нічної варти / Legend of the Guardians: The Owls of Ga’Hoole (2010) AVC

Нові коментарі

Нова тема   Відповісти
Автор Повідомлення
Drool 
VIP


З нами з: 17.04.10
Востаннє: 08.12.16
Повідомлень: 1267

2011-06-04 12:13  
Легенди нічної варти / Legend of the Guardians: The Owls of Ga’Hoole (2010) AVC



Жанр: мультфільм, фентезі, пригодницький
Країна: США, Австралія



Кіностудія / кінокомпанія: Warner Bros. Pictures, Village Roadshow Pictures, Animal Logic
Режисер: Зак Снайдер
Ролі озвучують: Джим Стерджесс, Джоел Едгертон, Хьюго Вівінг, Едріенн Дефар, Річард Роксбург, Девід Венем, Хелен Міррен, Міріам Марголіс

Сюжет:
Світом, у якому вже не залишилося людей, правлять сови ... добрі ... злі ... як і завжди! У чарівному лісі - королівстві сов Тіто - на Великому Дереві Ґа `Хул, де розумні сови живуть у гармонії, наступають похмурі часи. Королівство піддається страшній небезпеці з боку сусідніх жорстоких правителів, і ця небезпека загрожує знищити звичну світобудову.


Тривалість: 01:36:47
Якість:
Відео:
кодек:
розмір кадру: 1024x432
бітрейт: ~2060 кб/с

Аудіо:
мова: українська
переклад: професійний дубльований
кодек: 5.1
бітрейт: 384 кб/с

Переклад і озвучення виконано:
MediaInfo
General
Unique ID : 223526535003131951413705586889949424970 (0xA829A50BE552782B625039C4A94FAD4A)
Complete name : /mnt/disk_d/Video/Мультфильмы/Легенди нічної варти.mkv
Format : Matroska
File size : 1.65 GiB
Duration : 1h 36mn
Overall bit rate : 2 446 Kbps
Movie name : Легенди нічної варти
Encoded date : UTC 2011-03-04 15:13:39
Writing application : mkvmerge v0.7.0 ('Moanin'') built on Jun 5 2009 15:07:47
Writing library : libebml v0.7.8 + libmatroska v0.8.1

Video
ID : 1
Format : AVC
Format/Info : Advanced Video Codec
Format profile : [email protected]
Format settings, CABAC : Yes
Format settings, ReFrames : 6 frames
Codec ID : V_MPEG4/ISO/AVC
Duration : 1h 36mn
Bit rate : 2 060 Kbps
Width : 1 024 pixels
Height : 432 pixels
Display aspect ratio : 2.35:1
Original display aspect ratio : 2.35:1
Frame rate : 23.976 fps
Color space : YUV
Chroma subsampling : 4:2:0
Bit depth : 8 bits
Scan type : Progressive
Bits/(Pixel*Frame) : 0.194
Stream size : 1.36 GiB (82%)
Writing library : core 75 r1251kMod e553a4c
Encoding settings : cabac=1 / ref=6 / deblock=1:1:1 / analyse=0x1:0x111 / me=hex / subme=9 / psy=1 / psy_rd=1.0:0.8 / mixed_ref=1 / me_range=16 / chroma_me=1 / trellis=1 / 8x8dct=0 / cqm=0 / deadzone=21,11 / chroma_qp_offset=-4 / threads=1 / nr=0 / decimate=1 / mbaff=0 / bframes=6 / b_pyramid=0 / b_adapt=0 / b_bias=0 / direct=3 / wpredb=1 / keyint=250 / keyint_min=25 / scenecut=40 / rc_lookahead=60 / rc=2pass / mbtree=1 / bitrate=2060 / ratetol=1.0 / qcomp=0.60 / qpmin=10 / qpmax=51 / qpstep=4 / cplxblur=20.0 / qblur=0.5 / ip_ratio=1.40 / aq=1:1.00

Audio
ID : 2
Format : AC-3
Format/Info : Audio Coding 3
Mode extension : CM (complete main)
Codec ID : A_AC3
Duration : 1h 36mn
Bit rate mode : Constant
Bit rate : 384 Kbps
Channel(s) : 6 channels
Channel positions : Front: L C R, Side: L R, LFE
Sampling rate : 48.0 KHz
Bit depth : 16 bits
Compression mode : Lossy
Stream size : 266 MiB (16%)
Title : Українська
Language : Ukrainian
Скріншоти





Джерело: КінозалТВ (російську доріжку замінено українською з іншого -у)
Особиста оцінка: 10 - без зайвих вагань рекомендую всім!


 Трекер:    Зареєстрований   

Завантажити / скачати мультфільм українською



відео для новачків



 Зареєстрований:   2011-06-04 12:13
 Розмір:   1.65 GB 
 Оцінка мультфільму:   10/10 (Голосів: 22)
   
Ваш часовий пояс: GMT + 2 Години

Нова тема   Відповісти